Our friends

BBC Earth Story-all 8 episodes-DVDRip torrent

Torrent info

Date 2011-01-30 12:48:26
Category Series/TV Shows
Hash 0cb8628b096ea3d23b70395a821f2b769a775409
Seeds / Leechs -1 / -1 refresh
Full size 5954 MB
Tracker http://tracker.publicbt.com/scrape
Tags earth story episodes dvdrip
Download – BBC Earth Story-all 8 episodes-DVDRip Download direct – no client needed

Related torrents

Down.to.Earth.2001.SWESUB.DvDRip.XViD-Smurfenlars
The NeverEnding Story[1984]DvDrip[720x436]AC3[6ch][Eng]-RHooD
Another Cinderella Story (2008)[dvdrip]
The.Day.The.Earth.Stopped.2008.DVDRip.XviD.V.O.Sub.Spanish.Bajan

Torrent's content info

BBC.Earth.Story.2of8.The.Deep.XviD.AC3.www.mvgroup.org.avi

BBC Earth Story-all 8 episodes-DVDRip screenshot
  • Screenshot 1
  • Screenshot 2
  • Screenshot 3
  • Screenshot 4
  • Screenshot 5
  • Screenshot 6
  • Screenshot 7
  • Screenshot 8
  • Screenshot 9

Duration: 00:48:02.24, start: 0.000000, bitrate: 2166 kb/s
Stream #0.0: Video: mpeg4, yuv420p, 688x384 [PAR 1:1 DAR 43:24], 25.00 tb(r)
Stream #0.1: Audio: ac3, 48000 Hz, stereo, s16, 192 kb/s

Check the movie's sound/language:

Contents of download:

5954 megabyte in 24 files
BBC Earth Story-all 8 episodes-DVDRip
  • BBC Earth Story-all 8 episodes-DVDRip/BBC.Earth.Story.2of8.The.Deep.XviD.AC3.www.mvgroup.org.avi (744 MB)
  • BBC Earth Story-all 8 episodes-DVDRip/BBC.Earth.Story.7of8.The.Living.Earth.XviD.AC3.www.mvgroup.org.avi (744 MB)
  • BBC Earth Story-all 8 episodes-DVDRip/BBC.Earth.Story.4of8.Journey.to.the.Centre.of.the.Earth.XviD.AC3.www.mvgroup.org.avi (744 MB)
  • BBC Earth Story-all 8 episodes-DVDRip/BBC.Earth.Story.5of8.The.Roof.of.the.World.XviD.AC3.www.mvgroup.org.avi (744 MB)
  • BBC Earth Story-all 8 episodes-DVDRip/BBC.Earth.Story.6of8.The.Big.Freeze.XviD.AC3.www.mvgroup.org.avi (744 MB)
  • BBC Earth Story-all 8 episodes-DVDRip/BBC.Earth.Story.3of8.Ring.of Fire.XviD.AC3.www.mvgroup.org.avi (744 MB)
  • BBC Earth Story-all 8 episodes-DVDRip/BBC.Earth.Story.1of8.The.Time.Travellers.XviD.AC3.www.mvgroup.org.avi (744 MB)
  • BBC Earth Story-all 8 episodes-DVDRip/BBC.Earth.Story.8of8.A.World.Apart.XviD.AC3.www.mvgroup.org.avi (744 MB)
  • BBC Earth Story-all 8 episodes-DVDRip/BBC.Earth.Story.6of8.The.Big.Freeze.XviD.AC3.www.mvgroup.org.English.srt (59.3 KB)
  • BBC Earth Story-all 8 episodes-DVDRip/BBC.Historia.da.Terra.6de8.A.Grande.Glaciacao.Legendado.xara.srt (59.1 KB)
  • BBC Earth Story-all 8 episodes-DVDRip/BBC.Earth.Story.7of8.The.Living.Earth.XviD.AC3.www.mvgroup.org.English.srt (58.5 KB)
  • BBC Earth Story-all 8 episodes-DVDRip/BBC.Earth.Story.2of8.The.Deep.XviD.AC3.www.mvgroup.org.English.srt (58.2 KB)
  • BBC Earth Story-all 8 episodes-DVDRip/BBC.Earth.Story.5of8.The Rood.of.the.World.XviD.AC3.www.mvgroup.org.English.srt (57.9 KB)
  • BBC Earth Story-all 8 episodes-DVDRip/BBC.Earth.Story.8of8.A.World.Apart.XviD.AC3.www.mvgroup.org.English.srt (57.8 KB)
  • BBC Earth Story-all 8 episodes-DVDRip/BBC.Historia.da.Terra.7de8.Terra.Viva.Legendado.xara.srt (57.4 KB)
  • BBC Earth Story-all 8 episodes-DVDRip/BBC.Historia.da.Terra.8de8.Mundo.aa.Parte.Legendado.xara.srt (57.2 KB)
  • BBC Earth Story-all 8 episodes-DVDRip/BBC.Historia.da.Terra.2de8.As.Profundezas.Legendado.xara.srt (56.9 KB)
  • BBC Earth Story-all 8 episodes-DVDRip/BBC.Historia.da.Terra.5de8.O.Teto.do.Mundo.Legendado.xara.srt (56.5 KB)
  • BBC Earth Story-all 8 episodes-DVDRip/BBC.Earth.Story.4of8.Journey.to.the.Centre.of.the.Earth.XviD.AC3.www.mvgroup.org.English.srt (56.1 KB)
  • BBC Earth Story-all 8 episodes-DVDRip/BBC.Earth.Story.3of8.Ring.of Fire.XviD.AC3.www.mvgroup.org.English.srt (55.6 KB)
  • BBC Earth Story-all 8 episodes-DVDRip/BBC.Historia.da.Terra.4de8.Viagem.ao.Centro.da.Terra.Legendado.xara.srt (54.8 KB)
  • BBC Earth Story-all 8 episodes-DVDRip/BBC.Historia.da.Terra.3de8.Anel.de.Fogo.Legendado.xara.srt (53.8 KB)
  • BBC Earth Story-all 8 episodes-DVDRip/BBC.Earth.Story.1of8.The.Time.Travellers.XviD.AC3.www.mvgroup.org.English.srt (52.6 KB)
  • BBC Earth Story-all 8 episodes-DVDRip/BBC.Historia.da.Terra.1de8.Viajantes.do.Tempo.Legendado.xara.srt (51.7 KB)

Comments:


Add report or comment (250 words maximum)

I'd like:  
Type text from captcha: