Our friends

Hardware 1990 iNTERNAL Remastered Dual Audio DVDRip XviD-RiTALiX torrent

Torrent info

Date 2011-02-01 01:02:47
Category Movies
Hash 7c1ef242c58f1bccebf2d49f132e14bc78a6e438
Seeds / Leechs 6 / 0 refresh
Full size 1399 MB
Tracker http://tracker.publicbt.com/scrape
Tags hardware 1990 internal remastered dual audio dvdrip xvid ritalix

Related torrents

Perseguicao.2-O.Resgate[Dual.Audio]DVDRip.Xvid.AC3-5.1.Up.sturmer
Hardware 1990 iNTERNAL Remastered Dual Audio DVDRip XviD-RiTALiX
Yi Yi 2000 iNTERNAL Criterion Dual Audio DVDRip XviD-RiTALiX
Donkey Xote Dual Audio DVDRip XviD-Dual Adio

Torrent's content info

hardware.dual.audio-b-rtl.avi

Hardware 1990 iNTERNAL Remastered Dual Audio DVDRip XviD-RiTALiX screenshot
  • Screenshot 1
  • Screenshot 2
  • Screenshot 3
  • Screenshot 4
  • Screenshot 5
  • Screenshot 6
  • Screenshot 7
  • Screenshot 8
  • Screenshot 9

Duration: 00:41:53.09, start: 0.000000, bitrate: 2338 kb/s
Stream #0.0: Video: mpeg4, yuv420p, 640x336 [PAR 1:1 DAR 40:21], 23.98 tb(r)
Stream #0.1: Audio: mp3, 48000 Hz, stereo, s16, 160 kb/s
Stream #0.2: Audio: mp3, 48000 Hz, mono, s16, 64 kb/s

Check the movie's sound/language:

Text sample Text sample from Read This Guide Now.txt

www.TorrentDay.com - Your Gateway To The Scene.

we are the most on-time tracker around the globe, You can download releases whenever they release out by group uploaders.

no Wait Time, no Virus, Very Fast Download Speed.

Join us now at http://www.torrentday.com


Please join us and support TorrentDay.com to grow faster :)


Thank you =)

Come on, Join The Legends at: http://www.Torrentday.com

www.TorrentDay.com
www.TorrentDay.com
www.TorrentDay.com
www.TorrentDay.com




Text sample Text sample from www.Torrentday.com.txt

www.TorrentDay.com - Your Gateway To The Scene.

we are the most on-time tracker around the globe, You can download releases whenever they release out by group uploaders.

no Wait Time, no Virus, Very Fast Download Speed.

Join us now at http://www.torrentday.com


Please join us and support TorrentDay.com to grow faster :)


Thank you =)

Come on, Join The Legends at: http://www.Torrentday.com

www.TorrentDay.com
www.TorrentDay.com
www.TorrentDay.com
www.TorrentDay.com




Text sample Text sample from hardware.dual.audio-rtl.nfo



_________________________ /
caught in the \ ________ / nightmar of ritalin

\ _____/ / _/ / addiction!
____ \ \\ < c/ (____/
. \__/ . \ \__o\/ _ ___/
|\____/| \ <.(/_/ _______ .________
.___. | | \ \_/ .\_____/. _____| /
| |_______|___ |____. \ \_______._____. |\_____/| \ \_ /
| ___ _ | / | |___ \ ___ _ | | | |__\_ / _ _/
| \ : / | ___/__\_____/ | _|___|___ /: / . \
| \ ______/ | \ / / __/ | \\ : / \______/| \
|___|\ \ \ |______|____ \_ _ / \_________| _ _/ |_/_____| |______/
._____\__//_____________\_____/_____________|__________/_____________:_______.

| R i T A L i X - |

| F O R iNTERNAL U S E...

Read full text


Contents of download:

1399 megabyte in 5 files
Hardware 1990 iNTERNAL Remastered Dual Audio DVDRip XviD-RiTALiX
  • Hardware.1990.iNTERNAL.Remastered.Dual.Audio.DVDRip.XviD-RiTALiX [NO-RAR] - [ www.torrentday.com ]/CD1/hardware.dual.audio-a-rtl.avi (699 MB)
  • Hardware.1990.iNTERNAL.Remastered.Dual.Audio.DVDRip.XviD-RiTALiX [NO-RAR] - [ www.torrentday.com ]/CD2/hardware.dual.audio-b-rtl.avi (700 MB)
  • Hardware.1990.iNTERNAL.Remastered.Dual.Audio.DVDRip.XviD-RiTALiX [NO-RAR] - [ www.torrentday.com ]/hardware.dual.audio-rtl.nfo (2.5 KB)
  • Hardware.1990.iNTERNAL.Remastered.Dual.Audio.DVDRip.XviD-RiTALiX [NO-RAR] - [ www.torrentday.com ]/Read This Guide Now.txt (0.5 KB)
  • Hardware.1990.iNTERNAL.Remastered.Dual.Audio.DVDRip.XviD-RiTALiX [NO-RAR] - [ www.torrentday.com ]/www.Torrentday.com.txt (0.5 KB)

Comments:


Add report or comment (250 words maximum)

I'd like:  
Type text from captcha: