Our friends

Andrews Sisters - The Best Of (1943) torrent

Torrent info

Date 2011-02-01 12:48:34
Category Music
Hash fc54da8b8250eed3f7088f0dbb6820a42ace8707
Seeds / Leechs -1 / -1 refresh
Full size 99 MB
Tracker http://tracker.openbittorrent.com/scrape
Tags andrews sisters best 1943
Download – Andrews Sisters - The Best Of (1943) Download direct – no client needed

Related torrents

Leona Lewis - Best Kept Secret (2008) dhz-employee
Dead Parrot Society - The Best of British Comedy (Monty Python)
The Best Of Andrew Sisters
Andrews Sisters - 129 Songs

Torrent's content info

20 seconds audio samples

Andrew Sisters - Beat Me Daddy Eight To The Ba_sample.mp3
Audio file info Duration: 00:03:05.76, start: 0.000000, bitrate: 320 kb/s
Stream #0.0: Audio: mp3, 48000 Hz, stereo, s16, 320 kb/s
Andrew Sisters - Six Jerks In A Jeep_sample.mp3
Audio file info Duration: 00:02:41.44, start: 0.000000, bitrate: 320 kb/s
Stream #0.0: Audio: mp3, 48000 Hz, stereo, s16, 320 kb/s
Andrew Sisters - Mister Sandman_sample.mp3
Audio file info Duration: 00:02:27.24, start: 0.000000, bitrate: 320 kb/s
Stream #0.0: Audio: mp3, 48000 Hz, stereo, s16, 320 kb/s
Andrew Sisters - Jingle_Bells_1943_sample.mp3
Audio file info Duration: 00:02:35.88, start: 0.000000, bitrate: 320 kb/s
Stream #0.0: Audio: mp3, 48000 Hz, stereo, s16, 320 kb/s

Contents of download:

99 megabyte in 16 files
Andrews Sisters - The Best Of (1943)
  • Andrews Sisters - The Best Of (1943)/Andrew Sisters - Wanna Be Loved.mp3 (7.5 MB)
  • Andrews Sisters - The Best Of (1943)/Andrew Sisters - Long Time No See.mp3 (7.2 MB)
  • Andrews Sisters - The Best Of (1943)/Andrew Sisters - Bei Mir Bist Du Schon.mp3 (7.2 MB)
  • Andrews Sisters - The Best Of (1943)/Andrew Sisters - Beat Me Daddy Eight To The Ba.mp3 (7.1 MB)
  • Andrews Sisters - The Best Of (1943)/Andrew Sisters - Don`t Fence Me In.mp3 (6.9 MB)
  • Andrews Sisters - The Best Of (1943)/Andrew Sisters - I Love You Much Too Much.mp3 (6.9 MB)
  • Andrews Sisters - The Best Of (1943)/Andrew Sisters - You`re Just A Flower From An.mp3 (6.6 MB)
  • Andrews Sisters - The Best Of (1943)/Andrew Sisters - Shoo-Shoo-Baby.mp3 (6.5 MB)
  • Andrews Sisters - The Best Of (1943)/Andrew Sisters - Boogie Woogie Bugle Boy.mp3 (6.2 MB)
  • Andrews Sisters - The Best Of (1943)/Andrew Sisters - Six Jerks In A Jeep.mp3 (6.2 MB)
  • Andrews Sisters - The Best Of (1943)/Andrew Sisters - Six Times A Week And Twice On.mp3 (6 MB)
  • Andrews Sisters - The Best Of (1943)/Andrew Sisters - Jingle_Bells_1943.mp3 (5.9 MB)
  • Andrews Sisters - The Best Of (1943)/Andrew Sisters - Hit The Road.mp3 (5.9 MB)
  • Andrews Sisters - The Best Of (1943)/Andrew Sisters - Mister Sandman.mp3 (5.6 MB)
  • Andrews Sisters - The Best Of (1943)/Andrews Sisters - Mele Kalikimaka Merry Christmas_.mp3 (4.5 MB)
  • Andrews Sisters - The Best Of (1943)/Andrew Sisters - Hushabye Mountain (Reprise).mp3 (3.1 MB)

Comments:


Add report or comment (250 words maximum)

I'd like:  
Type text from captcha: