Our friends

Bollywood 720p Hindi HD Videos torrent

Torrent info

Date 2011-02-03 01:05:46
Category Music
Hash 693ab6c319b13ac3de591b0eade7a82d3fd34733
Seeds / Leechs -1 / -1 refresh
Full size 1842 MB
Tracker http://exodus.1337x.org/scrape
Tags bollywood 720p hindi videos
Download – Bollywood 720p Hindi HD Videos Download direct – no client needed

Related torrents

Bollywood Style Hindi Instrumental Soundtrack Glowing Shanta Hearts by Dan-O at DanoSongs com
Caught in the Crossfire 2010 BRRip 720p(Hindi -English)@mastitor
Dev D 2009 720p Hindi BRRip Ali Baloch Silver RG
Shaolin Soccer (2001) | m-HD | 720p | Hindi | Cantonese | BHATTI

Torrent's content info

Kal Ho Naa Ho - Mahi Ve (Full HD) Bollywood.mp4

Bollywood 720p Hindi HD Videos screenshot
  • Screenshot 1
  • Screenshot 2
  • Screenshot 3
  • Screenshot 4
  • Screenshot 5
  • Screenshot 6
  • Screenshot 7
  • Screenshot 8
  • Screenshot 9

Duration: 00:06:06.45, start: 0.000000, bitrate: 2992 kb/s
Stream #0.0(und): Video: h264, yuv420p, 1280x528, 24.00 tb(r)
Stream #0.1(und): Audio: aac, 44100 Hz, stereo, s16

Check the movie's sound/language:

Contents of download:

1842 megabyte in 23 files
Bollywood 720p Hindi HD Videos
  • HD Videos/Kal Ho Naa Ho - Mahi Ve (Full HD) Bollywood.mp4 (131 MB)
  • HD Videos/Ho Gaya Hai Tujhko To Pyaar Sajna-DDLJ Blu-Ray Song [HD].mp4 (120 MB)
  • HD Videos/Chiggy Wiggy - Blue (Hindi) - A R Rahman (HD).mp4 (120 MB)
  • HD Videos/Mere Rang Mein-Song-Maine Pyar Kiya.mp4 (100 MB)
  • HD Videos/Aaja Mahiya - Fiza (HD).mp4 (98 MB)
  • HD Videos/YEH DIL DEEWANA (HD) - PARDES - .mp4 (90 MB)
  • HD Videos/HD- Tu Mere Samne - Darr Full Song KiL0 Team DUS.mp4 (89 MB)
  • HD Videos/Dil Na Liya (720P) -HD- - Krrish (2006).mp4 (84 MB)
  • HD Videos/Ae Mere Humsafar - Baazigar (HD).mp4 (84 MB)
  • HD Videos/YouTube - Pee Loon-OUATIM Song 2010 [HD] W_Eng Subs.mp4 (81 MB)
  • HD Videos/ouTube - Ab To Forever (720P) -HD- - Ta Ra Rum Pum (2007) - DVD - Music Video - Full Song.mp4 (80 MB)
  • HD Videos/Aapka Kya Hoga Hd 720p - Dhanno Hd 720p - House Full Hd Hindi Song.mp4 (77 MB)
  • HD Videos/Main Yahan Hoon - Veer Zaara (2004) - -HD- .mp4 (77 MB)
  • HD Videos/YouTube - Tera Mast Mast Do Nain - 1080p.mp4 (77 MB)
  • HD Videos/TUM SE HI (HD) - JAB WE MET -.mp4 (72 MB)
  • HD Videos/Pyaar Ki Kahani - Krrish(HD 720p).mp4 (71 MB)
  • HD Videos/Koi Tum sa Nahin - Krrish - HD.mp4 (70 MB)
  • HD Videos/Ada - Garam Masala HD.mp4 (64 MB)
  • HD Videos/Tujhe Dekha Toh-DDLJ.mp4 (63 MB)
  • HD Videos/Dil Le Ke - Wanted Song 2009 [HD].mp4 (58 MB)
  • HD Videos/- Bluffmaster HD Bollywood.mp4 (58 MB)
  • HD Videos/(HD) Kuch Khaas Hai - Fashion - Sad Version .mp4 (42 MB)
  • HD Videos/(HD) Mar Jawan - Fashion.mp4 (37 MB)

Comments:


Add report or comment (250 words maximum)

I'd like:  
Type text from captcha: