Our friends

When a man loves a woman (695MB DivX) moviesbyrizzo torrent

Torrent info

Date 2011-02-03 12:51:36
Category Movies
Hash c9e7679a3ad7661fcf8049400b355e17f7320d92
Seeds / Leechs -1 / -1 refresh
Full size 696 MB
Tracker http://exodus.1337x.org/scrape
Tags when loves woman 695mb divx moviesbyrizzo

Related torrents

Percy Sledge - When a Man Loves a Woman-2002
The Guard - 1x05 - When All Else Fails divx
R Kelly - When A Woman Loves (KingPinVideos)
The Red Violin (1988) 720p H 264 DivX (moviesbyrizzo) MKV

Torrent's content info

When a man loves a woman (DivX) moviesbyrizzo.avi

When a man loves a woman (695MB DivX) moviesbyrizzo screenshot
  • Screenshot 1
  • Screenshot 2
  • Screenshot 3
  • Screenshot 4
  • Screenshot 5
  • Screenshot 6
  • Screenshot 7
  • Screenshot 8
  • Screenshot 9

Duration: 02:05:35.52, start: 0.000000, bitrate: 760 kb/s
Stream #0.0: Video: mpeg4, yuv420p, 720x480 [PAR 10:11 DAR 15:11], 29.97 tbr, 29.97 tbn, 30k tbc
Stream #0.1: Audio: mp3, 48000 Hz, 2 channels, s16, 128 kb/s

Check the movie's sound/language:

20 seconds audio samples

When a man loves a woman_sample.mp3
Audio file info Duration: 00:03:52.54, start: 0.000000, bitrate: 127 kb/s
Stream #0.0: Audio: mp3, 44100 Hz, 2 channels, s16, 128 kb/s
Homecoming - Zbigniew Preisner_sample.mp3
Audio file info Duration: 00:02:27.17, start: 0.000000, bitrate: 229 kb/s
Stream #0.0: Audio: mp3, 44100 Hz, 2 channels, s16, 192 kb/s
Everybody hurts sometime REM_sample.mp3
Audio file info Duration: 00:05:20.51, start: 0.000000, bitrate: 127 kb/s
Stream #0.0: Audio: mp3, 44100 Hz, 2 channels, s16, 128 kb/s

Contents of download:

696 megabyte in 5 files
When a man loves a woman (695MB DivX) moviesbyrizzo
  • When a man loves a woman (DivX) moviesbyrizzo.info/Soundtrack selections - when a man loves a woman/Everybody hurts sometime REM.mp3 (4.9 MB)
  • When a man loves a woman (DivX) moviesbyrizzo.info/Soundtrack selections - when a man loves a woman/Homecoming - Zbigniew Preisner.mp3 (4 MB)
  • When a man loves a woman (DivX) moviesbyrizzo.info/Soundtrack selections - when a man loves a woman/When a man loves a woman.mp3 (3.5 MB)
  • When a man loves a woman (DivX) moviesbyrizzo.info/When a man loves a woman (DivX) moviesbyrizzo.avi (683 MB)
  • When a man loves a woman (DivX) moviesbyrizzo.info/When a man loves a woman poster.jpg (0.3 MB)

Comments:


Add report or comment (250 words maximum)

I'd like:  
Type text from captcha: