Our friends

The Osmonds - Greatest Hits torrent

Torrent info

Date 2011-02-04 03:01:08
Category Music
Hash 4396574706d347cb2c5ded05f8ee084ba2e38461
Seeds / Leechs -1 / -1 refresh
Full size 38 MB
Tracker http://tracker.thepiratebay.org/announce
Tags osmonds greatest hits
Download – The Osmonds - Greatest Hits Download direct – no client needed

Related torrents

Jars Of Clay-Greatest Hits (2008) [Mp3]
Bangles-Greatest Hits (Canus Music by Jade)
Geri Halliwell - Greatest Hits [2006] [Pop] [www file24ever com]
Barry Manilow - Greatest Hits, Vol. 2

Torrent's content info

20 seconds audio samples

11-The Osmonds - Morning Side of the Mountain_sample.mp3
Audio file info Duration: 00:03:02.20, start: 0.000000, bitrate: 128 kb/s
Stream #0.0: Audio: mp3, 44100 Hz, 2 channels, s16, 128 kb/s
03-The Osmonds - Love me for a Reason_sample.mp3
Audio file info Duration: 00:04:00.16, start: 0.000000, bitrate: 127 kb/s
Stream #0.0: Audio: mp3, 44100 Hz, 2 channels, s16, 128 kb/s
13-The Osmonds - Too Young_sample.mp3
Audio file info Duration: 00:03:05.67, start: 0.000000, bitrate: 127 kb/s
Stream #0.0: Audio: mp3, 44100 Hz, 2 channels, s16, 128 kb/s
09-The Osmonds - Paper Roses_sample.mp3
Audio file info Duration: 00:02:39.71, start: 0.000000, bitrate: 127 kb/s
Stream #0.0: Audio: mp3, 44100 Hz, 2 channels, s16, 128 kb/s

Contents of download:

38 megabyte in 14 files
The Osmonds - Greatest Hits
  • The Osmonds - Greatest Hits/01-The Osmonds - One Bad Apple.mp3 (2.5 MB)
  • The Osmonds - Greatest Hits/02-The Osmonds - Down by the Lazy River.mp3 (2.4 MB)
  • The Osmonds - Greatest Hits/03-The Osmonds - Love me for a Reason.mp3 (3.7 MB)
  • The Osmonds - Greatest Hits/04-The Osmonds - Yo-Yo.mp3 (2.9 MB)
  • The Osmonds - Greatest Hits/05-The Osmonds - Go Away little Girl.mp3 (2.3 MB)
  • The Osmonds - Greatest Hits/06-The Osmonds - Puppy Love.mp3 (2.8 MB)
  • The Osmonds - Greatest Hits/07-The Osmonds - I'm Leaving it Up To You.mp3 (2.6 MB)
  • The Osmonds - Greatest Hits/08-The Osmonds - The Twelth of Never.mp3 (2.5 MB)
  • The Osmonds - Greatest Hits/09-The Osmonds - Paper Roses.mp3 (2.4 MB)
  • The Osmonds - Greatest Hits/10-The Osmonds - Hey Girl.mp3 (2.9 MB)
  • The Osmonds - Greatest Hits/11-The Osmonds - Morning Side of the Mountain.mp3 (2.8 MB)
  • The Osmonds - Greatest Hits/12-The Osmonds - Sweet and Innocent.mp3 (2.6 MB)
  • The Osmonds - Greatest Hits/13-The Osmonds - Too Young.mp3 (2.8 MB)
  • The Osmonds - Greatest Hits/14-The Osmonds - Why.mp3 (2.5 MB)

Comments:


Add report or comment (250 words maximum)

I'd like:  
Type text from captcha: