Our friends

Taylor Swift – Speak Now (Deluxe Edition) 2CD 2010-DOH torrent

Torrent info

Date 2011-02-08 00:57:20
Category Music
Hash 697729f7fe5b4988b255eb0eeb1eba7b45a6ba67
Seeds / Leechs -1 / -1 refresh
Full size 141 MB
Tracker http://nemesis.1337x.org/scrape
Tags taylor swift speak deluxe edition 2010

Related torrents

Lil Wayne - Rebirth{Deluxe Edition}2010-LW
Lil.Wayne-Rebirth-Retail.Deluxe.Edition)-2010-NoFS
Omarion-Ollusion-Deluxe.Edition-2010-NoFS
Taylor Swift Red Deluxe Itunes Edition 2012 MP3 DMT

Torrent's content info

20 seconds audio samples

113-taylor_swift-last_kiss_sample.mp3
Audio file info Duration: 00:06:07.20, start: 0.000000, bitrate: 191 kb/s
Stream #0.0: Audio: mp3, 44100 Hz, 2 channels, s16, 32 kb/s
112-taylor_swift-haunted_sample.mp3
Audio file info Duration: 00:04:02.15, start: 0.000000, bitrate: 211 kb/s
Stream #0.0: Audio: mp3, 44100 Hz, 2 channels, s16, 32 kb/s
110-taylor_swift-better_than_revenge_sample.mp3
Audio file info Duration: 00:03:37.23, start: 0.000000, bitrate: 209 kb/s
Stream #0.0: Audio: mp3, 44100 Hz, 2 channels, s16, 32 kb/s
206-taylor_swift-mine_(us_version)_sample.mp3
Audio file info Duration: 00:03:50.81, start: 0.000000, bitrate: 203 kb/s
Stream #0.0: Audio: mp3, 44100 Hz, 2 channels, s16, 32 kb/s

Text sample Text sample from 000-taylor_swift-speak_now_(deluxe_edition)-2cd-2010.nfo

Taylor Swift - Speak Now (Deluxe Edition)

Release Date.: 2010-10-22
Store Date...: 2010-10-25
Source.......: CD
Style........: Country
Record Label.: Big Machine Records
Cat Nr.......:
Encoder......: Lame 3.97 (-V2 --vbr-new)
Quality......: 194kbps avg / 44.1KHz / Joint Stereo


Disc 1/2
--------
1. Mine 3:50
2. Sparks Fly 4:20
3. Back To December 4:53
4. Speak Now 4:00
5. Dear John 6:43
6. Mean 3:57
7. The Story Of Us 4:25
8. Never Grow Up 4:50
9. Enchanted 5:52
10.Better Than Revenge 3:37
11.Innocent 5:02
12.Haunted ...

Read full text


Contents of download:

141 megabyte in 25 files
Taylor Swift – Speak Now (Deluxe Edition) 2CD 2010-DOH
  • Taylor swift - speak now/000-taylor_swift-speak_now_(deluxe_edition)-2cd-2010.m3u (0.8 KB)
  • Taylor swift - speak now/000-taylor_swift-speak_now_(deluxe_edition)-2cd-2010.nfo (2.8 KB)
  • Taylor swift - speak now/000-taylor_swift-speak_now_(deluxe_edition)-2cd-2010.sfv (1 KB)
  • Taylor swift - speak now/101-taylor_swift-mine.mp3 (5.3 MB)
  • Taylor swift - speak now/102-taylor_swift-sparks_fly.mp3 (6.3 MB)
  • Taylor swift - speak now/103-taylor_swift-back_to_december.mp3 (6.8 MB)
  • Taylor swift - speak now/104-taylor_swift-speak_now.mp3 (5.6 MB)
  • Taylor swift - speak now/105-taylor_swift-dear_john.mp3 (8.6 MB)
  • Taylor swift - speak now/106-taylor_swift-mean.mp3 (5.3 MB)
  • Taylor swift - speak now/107-taylor_swift-the_story_of_us.mp3 (6.6 MB)
  • Taylor swift - speak now/108-taylor_swift-never_grow_up.mp3 (5.7 MB)
  • Taylor swift - speak now/109-taylor_swift-enchanted.mp3 (8.7 MB)
  • Taylor swift - speak now/110-taylor_swift-better_than_revenge.mp3 (5.4 MB)
  • Taylor swift - speak now/111-taylor_swift-innocent.mp3 (6.5 MB)
  • Taylor swift - speak now/112-taylor_swift-haunted.mp3 (6.1 MB)
  • Taylor swift - speak now/113-taylor_swift-last_kiss.mp3 (8.4 MB)
  • Taylor swift - speak now/114-taylor_swift-long_live.mp3 (7.2 MB)
  • Taylor swift - speak now/201-taylor_swift-ours.mp3 (5.4 MB)
  • Taylor swift - speak now/202-taylor_swift-if_this_was_a_movie.mp3 (5.3 MB)
  • Taylor swift - speak now/203-taylor_swift-superman.mp3 (6.8 MB)
  • Taylor swift - speak now/204-taylor_swift-back_to_december_(acoustic).mp3 (6.6 MB)
  • Taylor swift - speak now/205-taylor_swift-haunted_(acoustic).mp3 (4.7 MB)
  • Taylor swift - speak now/206-taylor_swift-mine_(us_version).mp3 (5.6 MB)
  • Taylor swift - speak now/207-taylor_swift-back_to_december_(us_version).mp3 (7.2 MB)
  • Taylor swift - speak now/208-taylor_swift-the_story_of_us_(us_version).mp3 (6.4 MB)

Comments:


Add report or comment (250 words maximum)

I'd like:  
Type text from captcha: