Our friends

Lights Out 2011 S01E05 The Comeback HDTV XviD-FQM torrent

Torrent info

Date 2011-02-09 11:00:49
Category Series/TV Shows
Hash 4849035c9b35ea10f9ec38f169533317417369c9
Seeds / Leechs -1 / -1 refresh
Full size 358 MB
Tracker http://tracker.thepiratebay.org/announce
Tags lights 2011 s01e05 comeback hdtv xvid

Related torrents

The.Legend.Of.The.Seeker.S01E05.SWESUB.HDTV.XviD-Crispo
Sanctuary.US.S01E05.Kush.HDTV.XviD-FQM.[VTV]
Knight.Rider.2008.S01E05.SWESUB.HDTV.XviD-Miklo50
Lights Out 2011 S01E07 Crossroads HDTV XviD-FQM [eztv]

Torrent's content info

lights.out.2011.s01e05.hdtv.xvid-fqm.avi

Lights Out 2011 S01E05 The Comeback HDTV XviD-FQM screenshot
  • Screenshot 1
  • Screenshot 2
  • Screenshot 3
  • Screenshot 4
  • Screenshot 5
  • Screenshot 6
  • Screenshot 7
  • Screenshot 8
  • Screenshot 9

Duration: 00:41:42.93, start: 0.000000, bitrate: 1174 kb/s
Stream #0.0: Video: mpeg4, yuv420p, 624x352 [PAR 1:1 DAR 39:22], 23.98 tb(r)
Stream #0.1: Audio: mp3, 48000 Hz, stereo, s16, 128 kb/s

Check the movie's sound/language:

Text sample Text sample from www.Torrentday.com.txt

www.TorrentDay.com - Your Gateway To The Scene.

we are the most on-time tracker around the globe, You can download releases whenever they release out by group uploaders.

no Wait Time, no Virus, Very Fast Download Speed.

Join us now at http://www.torrentday.com


Please join us and support TorrentDay.com to grow faster :)


Thank you =)

Come on, Join us at: http://www.Torrentday.com

www.TorrentDay.com
www.TorrentDay.com
www.TorrentDay.com
www.TorrentDay.com




Text sample Text sample from Please Read This Guide First Now.txt

www.TorrentDay.com - Your Gateway To The Scene.

we are the most on-time tracker around the globe, You can download releases whenever they release out by group uploaders.

no Wait Time, no Virus, Very Fast Download Speed.

Join us now at http://www.torrentday.com


Please join us and support TorrentDay.com to grow faster :)


Thank you =)

Come on, Join us at: http://www.Torrentday.com

www.TorrentDay.com
www.TorrentDay.com
www.TorrentDay.com
www.TorrentDay.com




Text sample Text sample from lights.out.2011.s01e05.hdtv.xvid-fqm.nfo

Read full text


Text sample Text sample from the.good.wife.213.hdtv-lol.nfo

|-------| |---------------| |-------|
| | | | | |
| | | | | |
| | | | | |
| | | | | |
| | | |---| | | |
| | | | | | | |
| |________ | | | | | |________
| | | |---| | | |
| | | | | |
| | | | | |
| | | | | |
|________________| |_______________| |________________|
<o> o o> \o/ <o o \o
| <|> <| | \ X |.
/< /<...

Read full text


Contents of download:

358 megabyte in 6 files
Lights Out 2011 S01E05 The Comeback HDTV XviD-FQM
  • [ www.Torrentday.com ] - Lights.Out.2011.S01E05.The.Comeback.HDTV.XviD-FQM/lights.out.2011.s01e05.hdtv.xvid-fqm.avi (350 MB)
  • [ www.Torrentday.com ] - Lights.Out.2011.S01E05.The.Comeback.HDTV.XviD-FQM/lights.out.2011.s01e05.hdtv.xvid-fqm.nfo (8.9 KB)
  • [ www.Torrentday.com ] - Lights.Out.2011.S01E05.The.Comeback.HDTV.XviD-FQM/Please Read This Guide First Now.txt (0.5 KB)
  • [ www.Torrentday.com ] - Lights.Out.2011.S01E05.The.Comeback.HDTV.XviD-FQM/Sample/sample-lights.out.2011.s01e05.hdtv.xvid-fqm.avi (7.8 MB)
  • [ www.Torrentday.com ] - Lights.Out.2011.S01E05.The.Comeback.HDTV.XviD-FQM/the.good.wife.213.hdtv-lol.nfo (3.8 KB)
  • [ www.Torrentday.com ] - Lights.Out.2011.S01E05.The.Comeback.HDTV.XviD-FQM/www.Torrentday.com.txt (0.5 KB)

Comments:


Add report or comment (250 words maximum)

I'd like:  
Type text from captcha: