Our friends

Lights Out 2011 S01E05 The Comeback HDTV XviD-FQM [eztv] torrent

Torrent info

Date 2011-02-09 12:00:26
Category Series/TV Shows
Hash 63a272385b1aeebd04399f54004017cc65c57deb
Seeds / Leechs -1 / -1 refresh
Full size 350 MB
Tracker http://tracker.thepiratebay.org/announce
Tags lights 2011 s01e05 comeback hdtv xvid eztv

Related torrents

Trauma S01E05 Masquerade HDTV XviD-FQM [eztv]
The Cape 2011 S01E05 720p HDTV X264-DIMENSION [eztv]
Lights Out 2011 S01E07 Crossroads HDTV XviD-FQM [eztv]
Mr Sunshine 2011 S01E04 REAL HDTV XviD-2HD [eztv]

Torrent's content info

Lights.Out.2011.S01E05.The.Comeback.HDTV.XviD-FQM.avi

Lights Out 2011 S01E05 The Comeback HDTV XviD-FQM [eztv] screenshot
  • Screenshot 1
  • Screenshot 2
  • Screenshot 3
  • Screenshot 4
  • Screenshot 5
  • Screenshot 6
  • Screenshot 7
  • Screenshot 8
  • Screenshot 9

Duration: 00:41:42.93, start: 0.000000, bitrate: 1174 kb/s
Stream #0.0: Video: mpeg4, yuv420p, 624x352 [PAR 1:1 DAR 39:22], 23.98 tbr, 23.98 tbn, 23.98 tbc
Stream #0.1: Audio: mp3, 48000 Hz, 2 channels, s16, 128 kb/s

Check the movie's sound/language:

Contents of download:

350 megabyte in 1 files
Lights Out 2011 S01E05 The Comeback HDTV XviD-FQM [eztv]
  • Lights.Out.2011.S01E05.The.Comeback.HDTV.XviD-FQM.avi (350 MB)

Comments:


Add report or comment (250 words maximum)

I'd like:  
Type text from captcha: