Our friends

All-4-One - I Swear [CDS](1994) torrent

Torrent info

Date 2011-02-12 12:48:59
Category Music
Hash 33c027a1e4497b36b5f8d964714ec01c86bbf6e2
Seeds / Leechs -1 / -1 refresh
Full size 19 MB
Tracker http://tracker.publicbt.com/scrape
Tags swear 1994
Download – All-4-One - I Swear [CDS](1994) Download direct – no client needed

Related torrents

(1994) Chaos B A - Sepultura
Tim McGraw - Not A Moment Too Soon[1994]cdRip[Magicfingers]
(1994) Johnny Cash - American Recordings (American I)
Mega Dance Vol.3 1994 (320kbps)

Torrent's content info

20 seconds audio samples

All-4-One - I Swear - 01 - I Swear (Radio Edit).MP3_sample.mp3
Audio file info Duration: 00:03:47.85, start: 0.000000, bitrate: 160 kb/s
Stream #0.0: Audio: mp3, 44100 Hz, stereo, s16, 160 kb/s
All-4-One - I Swear - 04 - I Swear (Album Version).MP3_sample.mp3
Audio file info Duration: 00:04:21.34, start: 0.000000, bitrate: 159 kb/s
Stream #0.0: Audio: mp3, 44100 Hz, stereo, s16, 160 kb/s
All-4-One - I Swear - 02 - I Swear (Radio Mix).MP3_sample.mp3
Audio file info Duration: 00:04:23.51, start: 0.000000, bitrate: 159 kb/s
Stream #0.0: Audio: mp3, 44100 Hz, stereo, s16, 160 kb/s
All-4-One - I Swear - 03 - I Swear (Radio Remix).MP3_sample.mp3
Audio file info Duration: 00:04:23.51, start: 0.000000, bitrate: 160 kb/s
Stream #0.0: Audio: mp3, 44100 Hz, stereo, s16, 160 kb/s

Contents of download:

19 megabyte in 5 files
All-4-One - I Swear [CDS](1994)
  • All-4-One - I Swear [CDS](1994)/All-4-One - I Swear - 02 - I Swear (Radio Mix).MP3 (5 MB)
  • All-4-One - I Swear [CDS](1994)/All-4-One - I Swear - 03 - I Swear (Radio Remix).MP3 (5 MB)
  • All-4-One - I Swear [CDS](1994)/All-4-One - I Swear - 04 - I Swear (Album Version).MP3 (5 MB)
  • All-4-One - I Swear [CDS](1994)/All-4-One - I Swear - 01 - I Swear (Radio Edit).MP3 (4.3 MB)
  • All-4-One - I Swear [CDS](1994)/AlbumArt.jpg (31 KB)

Comments:


Add report or comment (250 words maximum)

I'd like:  
Type text from captcha: