Our friends

Una notte al museo 2 La fuga [Divx Ita-Eng Ac3] [Tntvillage] torrent

Torrent info

Date 2011-02-14 12:59:34
Category Movies
Hash b4ca2d0f2150b98cf978ef1eb70bb72a71e9b5e0
Seeds / Leechs 40 / 3 refresh
Full size 1470 MB
Tracker http://tracker.tntvillage.scambioetico.org:2710/scrape
Tags notte museo fuga divx tntvillage

Related torrents

[VHSRip-Divx-ITA MP3]Sogno di una Notte di Mezza Estate [Tntvillage.Scambioetico]
VIVALDI - LE QUATTRO STAGIONI - I MUSICI[DIVX][TNTVILLAGE]
Kamikazen ultima notte a Milano, (DivX - Ita Mp3)(TNTVillage scambioetico org)
Una notte al museo 2 La fuga [Divx Ita-Eng Ac3] [Tntvillage]

Torrent's content info

Una Notte al Museo 2 - La Fuga.avi

Una notte al museo 2 La fuga [Divx Ita-Eng Ac3] [Tntvillage] screenshot
  • Screenshot 1
  • Screenshot 2
  • Screenshot 3
  • Screenshot 4
  • Screenshot 5
  • Screenshot 6
  • Screenshot 7
  • Screenshot 8
  • Screenshot 9

Duration: 01:40:25.72, start: 0.000000, bitrate: 2046 kb/s
Stream #0.0: Video: mpeg4, yuv420p, 720x440 [PAR 88:81 DAR 16:9], 25 tbr, 25 tbn, 25 tbc
Stream #0.1: Audio: ac3, 48000 Hz, 5.1, s16, 384 kb/s
Stream #0.2: Audio: ac3, 48000 Hz, 5.1, s16, 448 kb/s

Check the movie's sound/language:

Contents of download:

1470 megabyte in 1 files
Una notte al museo 2 La fuga [Divx Ita-Eng Ac3] [Tntvillage]
  • Una Notte al Museo 2 - La Fuga.avi (1470 MB)

Comments:


Add report or comment (250 words maximum)

I'd like:  
Type text from captcha: