Our friends

Groove Armada - White Light [CD] (2010)-Var(254kbps avg)-[GRG] torrent

Torrent info

Date 2011-02-17 12:56:19
Category Music
Hash 76e062c6f42da487c34d82098e4d8f378adcf5e0
Seeds / Leechs 8 / 0 refresh
Full size 85 MB
Tracker http://tracker.publicbt.com/scrape
Tags groove armada white light 2010 254kbps

Related torrents

HBO - White Light, Black Rain: The Destruction of Hiroshima and Nagasaki
Groove Armada- Goodbye Country (Hello Nightclub)- Vertigo -256k
Groove Armada - White Light [CD] (2010)-Var(254kbps avg)-[GRG]
Groove Armada - History EP 2010 Remixes

Torrent's content info

20 seconds audio samples

05 - I Won’t Kneel_sample.mp3
Audio file info Duration: 00:04:58.57, start: 0.000000, bitrate: 233 kb/s
Stream #0.0: Audio: mp3, 44100 Hz, stereo, s16, 192 kb/s
02 - Time & Space_sample.mp3
Audio file info Duration: 00:05:12.68, start: 0.000000, bitrate: 245 kb/s
Stream #0.0: Audio: mp3, 44100 Hz, stereo, s16, 224 kb/s
08 - 1980_sample.mp3
Audio file info Duration: 00:04:08.76, start: 0.000000, bitrate: 243 kb/s
Stream #0.0: Audio: mp3, 44100 Hz, stereo, s16, 256 kb/s
03 - History_sample.mp3
Audio file info Duration: 00:05:37.65, start: 0.000000, bitrate: 266 kb/s
Stream #0.0: Audio: mp3, 44100 Hz, stereo, s16, 224 kb/s

Contents of download:

85 megabyte in 10 files
Groove Armada - White Light [CD] (2010)-Var(254kbps avg)-[GRG]
  • Groove Armada - White Light [mp3-vbr-2010]/01 - Warsaw.mp3 (11 MB)
  • Groove Armada - White Light [mp3-vbr-2010]/02 - Time & Space.mp3 (9.2 MB)
  • Groove Armada - White Light [mp3-vbr-2010]/03 - History.mp3 (11 MB)
  • Groove Armada - White Light [mp3-vbr-2010]/04 - Not Forgotten.mp3 (10 MB)
  • Groove Armada - White Light [mp3-vbr-2010]/05 - I Won’t Kneel.mp3 (8.3 MB)
  • Groove Armada - White Light [mp3-vbr-2010]/06 - Look Me In The Eye Sister.mp3 (11 MB)
  • Groove Armada - White Light [mp3-vbr-2010]/07 - Paper Romance.mp3 (12 MB)
  • Groove Armada - White Light [mp3-vbr-2010]/08 - 1980.mp3 (7.2 MB)
  • Groove Armada - White Light [mp3-vbr-2010]/09 - History (Love Mix).mp3 (6.5 MB)
  • Groove Armada - White Light [mp3-vbr-2010]/front.jpg (18.7 KB)

Comments:


Add report or comment (250 words maximum)

I'd like:  
Type text from captcha: