Our friends

Destruction - Day of Reckoning (2011) torrent

Torrent info

Date 2011-02-18 18:00:22
Category Music
Hash 51d25529347cee227c7245a64619818fca73b76c
Seeds / Leechs 6 / 0 refresh
Full size 115 MB
Tracker http://tracker.thepiratebay.org/announce
Tags destruction reckoning 2011
Download – Destruction - Day of Reckoning (2011) Download direct – no client needed

Related torrents

Destruction - Day of Reckoning (2011)
Monster Jam Path of Destruction (2011) [Wii][PAL][MULTi5]
The Reckoning 2011 DVDRip XviD-ARCHiViST
Destruction - Discography [1984-2011]

Torrent's content info

20 seconds audio samples

08. The Demon Is God_sample.mp3
Audio file info Duration: 00:05:11.11, start: 0.000000, bitrate: 320 kb/s
Stream #0.0: Audio: mp3, 44100 Hz, stereo, s16, 320 kb/s
10. Destroyer or Creator_sample.mp3
Audio file info Duration: 00:03:09.91, start: 0.000000, bitrate: 320 kb/s
Stream #0.0: Audio: mp3, 44100 Hz, stereo, s16, 320 kb/s
12. Stand Up and Shout (Bonus Track)_sample.mp3
Audio file info Duration: 00:03:17.92, start: 0.000000, bitrate: 320 kb/s
Stream #0.0: Audio: mp3, 44100 Hz, stereo, s16, 320 kb/s
02. Hate Is My Fuel_sample.mp3
Audio file info Duration: 00:04:24.09, start: 0.000000, bitrate: 320 kb/s
Stream #0.0: Audio: mp3, 44100 Hz, stereo, s16, 320 kb/s

Text sample Text sample from 00. Destruction - Day of Reckoning.nfo

---------------------------------------------------------------------
Destruction - Day of Reckoning
---------------------------------------------------------------------

Artist...............: Destruction
Album................: Day of Reckoning
Genre................: Thrash Metal
Source...............: NMR
Year.................: 2011
Ripper...............: NMR
Codec................: LAME 3.93
Version..............: MPEG 1 Layer III
Quality..............: Insane, (avg. bitrate: 320kbps)
Channels.............: Stereo / 44100 hz
Tags.................: ID3 v1.1, ID3 v2.3
Information..........:

Ripped by............: NMR
Posted by............: Somebody on 14/2/2011
News Server..........: news.astraweb.com
News Group(s)........: alt.binaries.sounds.mp3.metal.full.albums

Included.............: NFO, M3U


---------------------------------------------------------------------
...

Read full text


Contents of download:

115 megabyte in 16 files
Destruction - Day of Reckoning (2011)
  • Destruction - Day of Reckoning (2011)/08. The Demon Is God.mp3 (12 MB)
  • Destruction - Day of Reckoning (2011)/11. Sheep of the Regime.mp3 (11 MB)
  • Destruction - Day of Reckoning (2011)/07. Misfit.mp3 (10 MB)
  • Destruction - Day of Reckoning (2011)/06. Sorcerer of Black Magic.mp3 (10 MB)
  • Destruction - Day of Reckoning (2011)/02. Hate Is My Fuel.mp3 (10 MB)
  • Destruction - Day of Reckoning (2011)/04. Devil's Advocate.mp3 (10 MB)
  • Destruction - Day of Reckoning (2011)/03. Armageddonizer.mp3 (9.5 MB)
  • Destruction - Day of Reckoning (2011)/09. Church of Disgust.mp3 (9.4 MB)
  • Destruction - Day of Reckoning (2011)/05. Day of Reckoning.mp3 (9.1 MB)
  • Destruction - Day of Reckoning (2011)/01. The Price.mp3 (8.4 MB)
  • Destruction - Day of Reckoning (2011)/12. Stand Up and Shout (Bonus Track).mp3 (7.6 MB)
  • Destruction - Day of Reckoning (2011)/10. Destroyer or Creator.mp3 (7.2 MB)
  • Destruction - Day of Reckoning (2011)/Destruction front.jpg (0.1 MB)
  • Destruction - Day of Reckoning (2011)/00. Destruction - Day of Reckoning.nfo (2 KB)
  • Destruction - Day of Reckoning (2011)/00. Destruction - Day of Reckoning.m3u (1.7 KB)
  • Destruction - Day of Reckoning (2011)/00. Destruction - Day of Reckoning.sfv (1.6 KB)

Comments:


Add report or comment (250 words maximum)

I'd like:  
Type text from captcha: