Our friends

[OZC]Cowboy Bebop Remastered Episode 7 (Dual Audio) torrent

Torrent info

Date 2011-02-19 01:10:23
Category Anime
Hash 0ded82b872325e33b9cfdba1c63106f1219148da
Seeds / Leechs -1 / -1 refresh
Full size 382 MB
Tracker http://nyaatorrents.info:3277/scrape
Tags cowboy bebop remastered episode dual audio

Related torrents

[Saishuu com]StepMothers Sin 1-2 Dual Audio
[OZC]Eureka Seven Episode 35 (Blu-Ray Dual Audio)
Hardware 1990 iNTERNAL Remastered Dual Audio DVDRip XviD-RiTALiX
Cowboy Bebop the Movie: Knockin' on Heaven's Door (Dual Audio 2011 Release)

KaubĂ´i bibappu: Cowboy Bebop (2001) overview

Genre: drama, sci-fi, action, thriller, animation, crime Director: Okiura, Hiroyuki

Description

2072. Earth has become a desert, abundantly watered meteor shower. The remnants of humanity spread over the solar system. But people have changed little. Once again, the police chasing criminals, and again, as was once the photo criminals flaunt, under the inscription "Wanted". And dashing bounty hunters - cowboys - sent in pursuit of success. And we will witness the life of one of these teams of cowboys - the crew of the former trawler "Bebop". The cheerful company of charismatic heroes, who wonders at the sight: "And how do they get along?" Jet Black, a former policeman and Spike Spiegel, a man with a dark past, have not planning to increase the crew of the spaceship Bebop, which is their home and means of transportation. But the networks, spread out to catch a costly waste of society, brought them Faye Valentine - charming gambler with enormous debt, Ed - the lost computer brain and Einstein - presumably the most intelligent dog in the world. It is in this part Bebop crew continues its work - headhunting. Their adventures are comical, philosophical, and sometimes tragic nature...

Torrent's content info

[OZC]Cowboy Bebop Remastered E07 'Heavy Metal Queen'.mkv

[OZC]Cowboy Bebop Remastered Episode 7 (Dual Audio) screenshot
  • Screenshot 1
  • Screenshot 2
  • Screenshot 3
  • Screenshot 4
  • Screenshot 5
  • Screenshot 6
  • Screenshot 7
  • Screenshot 8
  • Screenshot 9

Duration: 00:24:40.60, start: 0.000000, bitrate: N/A
Stream #0.0(jpn): Video: h264, yuv420p, 720x480, PAR 8:9 DAR 4:3, 23.98 tbr, 1k tbn, 47.95 tbc
Stream #0.1(eng): Audio: aac, 24000 Hz, 5.1, s16
Stream #0.2(jpn): Audio: aac, 24000 Hz, 5.1, s16
Stream #0.3(eng): Subtitle: 0x0000
Stream #0.4(eng): Subtitle: 0x0000
Stream #0.5: Attachment: 0x0000
Stream #0.6: Attachment: 0x0000
Stream #0.7: Attachment: 0x0000
Stream #0.8: Attachment: 0x0000
Stream #0.9: Attachment: 0x0000
Stream #0.10: Attachment: 0x0000
Stream #0.11: Attachment: 0x0000
Stream #0.12: Attachment: 0x0000

Contents of download:

382 megabyte in 1 files
[OZC]Cowboy Bebop Remastered Episode 7 (Dual Audio)
  • [OZC]Cowboy Bebop Remastered E07 'Heavy Metal Queen'.mkv (382 MB)

Comments:


Add report or comment (250 words maximum)

I'd like:  
Type text from captcha: