Our friends

Aerosmith - Nine Lives (1997) [CD Rip] 320 vtwin88cube torrent

Torrent info

Date 2011-02-19 07:00:35
Category Music
Hash 85f0aa4edb08a5c3772d488e0578b8ba74c252f6
Seeds / Leechs -1 / -1 refresh
Full size 145 MB
Tracker http://tracker.thepiratebay.org/announce
Tags aerosmith nine lives 1997 vtwin88cube

Related torrents

Nine Lives of Fritz the Cat
Fritz the Cat & The Nine Lives of Fritz the Cat (DVD)
Steve Winwood - Nine Lives-2008.
Steve Winwood Nine Lives-++Demonoid com++ 1570502 3692

Torrent's content info

20 seconds audio samples

09.Crash_sample.mp3
Audio file info Duration: 00:04:28.43, start: 0.000000, bitrate: 320 kb/s
Stream #0.0: Audio: mp3, 44100 Hz, stereo, s16, 320 kb/s
06.Something's Gotta Give_sample.mp3
Audio file info Duration: 00:03:39.30, start: 0.000000, bitrate: 319 kb/s
Stream #0.0: Audio: mp3, 44100 Hz, stereo, s16, 320 kb/s
08.The Farm_sample.mp3
Audio file info Duration: 00:04:30.21, start: 0.000000, bitrate: 320 kb/s
Stream #0.0: Audio: mp3, 44100 Hz, stereo, s16, 320 kb/s
10.Kiss Your Past Good-Bye_sample.mp3
Audio file info Duration: 00:04:34.23, start: 0.000000, bitrate: 319 kb/s
Stream #0.0: Audio: mp3, 44100 Hz, stereo, s16, 320 kb/s

Contents of download:

145 megabyte in 15 files
Aerosmith - Nine Lives (1997) [CD Rip] 320 vtwin88cube
  • Aerosmith - Nine Lives (1997) [CD Rip] 320 vtwin88cube/01.Nine Lives.mp3 (9.3 MB)
  • Aerosmith - Nine Lives (1997) [CD Rip] 320 vtwin88cube/02.Falling In Love (Is Hard On The Knees).mp3 (8 MB)
  • Aerosmith - Nine Lives (1997) [CD Rip] 320 vtwin88cube/03.Hole In My Soul.mp3 (14 MB)
  • Aerosmith - Nine Lives (1997) [CD Rip] 320 vtwin88cube/04.Taste Of India.mp3 (14 MB)
  • Aerosmith - Nine Lives (1997) [CD Rip] 320 vtwin88cube/05.Full Circle.mp3 (12 MB)
  • Aerosmith - Nine Lives (1997) [CD Rip] 320 vtwin88cube/06.Something's Gotta Give.mp3 (8.4 MB)
  • Aerosmith - Nine Lives (1997) [CD Rip] 320 vtwin88cube/07.Ain't That A Bitch.mp3 (13 MB)
  • Aerosmith - Nine Lives (1997) [CD Rip] 320 vtwin88cube/08.The Farm.mp3 (10 MB)
  • Aerosmith - Nine Lives (1997) [CD Rip] 320 vtwin88cube/09.Crash.mp3 (10 MB)
  • Aerosmith - Nine Lives (1997) [CD Rip] 320 vtwin88cube/10.Kiss Your Past Good-Bye.mp3 (10 MB)
  • Aerosmith - Nine Lives (1997) [CD Rip] 320 vtwin88cube/11.Pink.mp3 (9.1 MB)
  • Aerosmith - Nine Lives (1997) [CD Rip] 320 vtwin88cube/12.Attitude Adjustment.mp3 (8.7 MB)
  • Aerosmith - Nine Lives (1997) [CD Rip] 320 vtwin88cube/13.Fallen Angels.mp3 (19 MB)
  • Aerosmith - Nine Lives (1997) [CD Rip] 320 vtwin88cube/aerosmith_nine Lives.jpg (96.4 KB)
  • Aerosmith - Nine Lives (1997) [CD Rip] 320 vtwin88cube/playlist.m3u (0.3 KB)

Comments:


Add report or comment (250 words maximum)

I'd like:  
Type text from captcha: