Our friends

Allie Moss - Passerby EP torrent

Torrent info

Date 2011-02-20 00:50:18
Category Music
Hash a3aaff1310b24a65c19cfce1d2de1cd64db0caa2
Seeds / Leechs -1 / -1 refresh
Full size 36 MB
Tracker http://tracker.openbittorrent.com/scrape
Tags allie moss passerby
Download – Allie Moss - Passerby EP Download direct – no client needed

Related torrents

Expert WSS 3 and MOSS 2007 Programming~tqw~_darksiderg
SHAREGO KATE MOSS PICS.rar
Rom 1522 [NDS][Spider-Man Allie ou Ennemi[FRA][ESPALNDS com] zip
Allie Moss - Passerby [EP][Bonus Tracks](2009)

Torrent's content info

20 seconds audio samples

3. Prisoner Of Hope_sample.mp3
Audio file info Duration: 00:04:11.19, start: 0.000000, bitrate: 192 kb/s
Stream #0.0: Audio: mp3, 44100 Hz, 2 channels, s16, 192 kb/s
7. Rally_sample.mp3
Audio file info Duration: 00:03:34.68, start: 0.000000, bitrate: 192 kb/s
Stream #0.0: Audio: mp3, 44100 Hz, 2 channels, s16, 192 kb/s
2. Let It Go_sample.mp3
Audio file info Duration: 00:03:05.26, start: 0.000000, bitrate: 191 kb/s
Stream #0.0: Audio: mp3, 44100 Hz, 2 channels, s16, 192 kb/s
4. Days I Regret_sample.mp3
Audio file info Duration: 00:02:56.53, start: 0.000000, bitrate: 191 kb/s
Stream #0.0: Audio: mp3, 44100 Hz, 2 channels, s16, 192 kb/s

Contents of download:

36 megabyte in 7 files
Allie Moss - Passerby EP
  • Allie Moss - Passerby/5. Passerby.mp3 (6.8 MB)
  • Allie Moss - Passerby/3. Prisoner Of Hope.mp3 (5.7 MB)
  • Allie Moss - Passerby/1. Corner.mp3 (5.3 MB)
  • Allie Moss - Passerby/7. Rally.mp3 (4.9 MB)
  • Allie Moss - Passerby/6. Something To Hold On To.mp3 (4.6 MB)
  • Allie Moss - Passerby/2. Let It Go.mp3 (4.2 MB)
  • Allie Moss - Passerby/4. Days I Regret.mp3 (4 MB)

Comments:


Add report or comment (250 words maximum)

I'd like:  
Type text from captcha: