Our friends

Time Team S17E08 REPACK WS PDTV XviD-SFM torrent

Torrent info

Date 2011-02-23 01:06:20
Category Series/TV Shows
Hash 23cf9f0af4092c7f6e369a42f298e471214c572a
Seeds / Leechs -1 / -1 refresh
Full size 350 MB
Tracker http://tracker.openbittorrent.com/scrape
Tags time team s17e08 repack pdtv xvid
Download – Time Team S17E08 REPACK WS PDTV XviD-SFM Download direct – no client needed

Related torrents

Survivor S16E07 Like a Wide-Eyed Kid in the Candy Store MINOR REPACK PDTV XviD-FQM [eztv]
BBC Horizon 2008 Do You Know What Time It Is WS PDTV XviD MP3
Robot.Chicken.S04E03.REPACK.PDTV.XviD-aAF.avi
Robot.Chicken.S04E03.REPACK.PDTV.XviD-aAF #2 [35/3]

Torrent's content info

time.team.s17e08.repack.ws.pdtv.xvid-sfm.avi

Time Team S17E08 REPACK WS PDTV XviD-SFM screenshot
  • Screenshot 1
  • Screenshot 2
  • Screenshot 3
  • Screenshot 4
  • Screenshot 5
  • Screenshot 6
  • Screenshot 7
  • Screenshot 8
  • Screenshot 9

Duration: 00:47:50.16, start: 0.000000, bitrate: 1022 kb/s
Stream #0.0: Video: mpeg4, yuv420p, 624x352 [PAR 1:1 DAR 39:22], 25 tbr, 25 tbn, 25 tbc
Stream #0.1: Audio: mp3, 48000 Hz, 2 channels, s16, 128 kb/s

Check the movie's sound/language:

tt1708.rp.xvid-sfm.rar

  • time.team.s17e08.repack.ws.pdtv.xvid-sfm.avi (350 MB)

Text sample Text sample from time.team.s17e08.repack.ws.pdtv.xvid-sfm.nfo

Read full text


Text sample Text sample from This torrent has been downloaded from scenetime.com.txt

This torrent is downloaded from : http://www.scenetime.com

Join now and support scenetime.com to grow faster

Friendly community :)




Contents of download:

350 megabyte in 28 files
Time Team S17E08 REPACK WS PDTV XviD-SFM
  • Time.Team.S17E08.REPACK.WS.PDTV.XviD-SFM - { www.SceneTime.com }/This torrent has been downloaded from scenetime.com.txt (0.1 KB)
  • Time.Team.S17E08.REPACK.WS.PDTV.XviD-SFM - { www.SceneTime.com }/time.team.s17e08.repack.ws.pdtv.xvid-sfm.nfo (9.5 KB)
  • Time.Team.S17E08.REPACK.WS.PDTV.XviD-SFM - { www.SceneTime.com }/tt1708.rp.xvid-sfm.r00 (14 MB)
  • Time.Team.S17E08.REPACK.WS.PDTV.XviD-SFM - { www.SceneTime.com }/tt1708.rp.xvid-sfm.r01 (14 MB)
  • Time.Team.S17E08.REPACK.WS.PDTV.XviD-SFM - { www.SceneTime.com }/tt1708.rp.xvid-sfm.r02 (14 MB)
  • Time.Team.S17E08.REPACK.WS.PDTV.XviD-SFM - { www.SceneTime.com }/tt1708.rp.xvid-sfm.r03 (14 MB)
  • Time.Team.S17E08.REPACK.WS.PDTV.XviD-SFM - { www.SceneTime.com }/tt1708.rp.xvid-sfm.r04 (14 MB)
  • Time.Team.S17E08.REPACK.WS.PDTV.XviD-SFM - { www.SceneTime.com }/tt1708.rp.xvid-sfm.r05 (14 MB)
  • Time.Team.S17E08.REPACK.WS.PDTV.XviD-SFM - { www.SceneTime.com }/tt1708.rp.xvid-sfm.r06 (14 MB)
  • Time.Team.S17E08.REPACK.WS.PDTV.XviD-SFM - { www.SceneTime.com }/tt1708.rp.xvid-sfm.r07 (14 MB)
  • Time.Team.S17E08.REPACK.WS.PDTV.XviD-SFM - { www.SceneTime.com }/tt1708.rp.xvid-sfm.r08 (14 MB)
  • Time.Team.S17E08.REPACK.WS.PDTV.XviD-SFM - { www.SceneTime.com }/tt1708.rp.xvid-sfm.r09 (14 MB)
  • Time.Team.S17E08.REPACK.WS.PDTV.XviD-SFM - { www.SceneTime.com }/tt1708.rp.xvid-sfm.r10 (14 MB)
  • Time.Team.S17E08.REPACK.WS.PDTV.XviD-SFM - { www.SceneTime.com }/tt1708.rp.xvid-sfm.r11 (14 MB)
  • Time.Team.S17E08.REPACK.WS.PDTV.XviD-SFM - { www.SceneTime.com }/tt1708.rp.xvid-sfm.r12 (14 MB)
  • Time.Team.S17E08.REPACK.WS.PDTV.XviD-SFM - { www.SceneTime.com }/tt1708.rp.xvid-sfm.r13 (14 MB)
  • Time.Team.S17E08.REPACK.WS.PDTV.XviD-SFM - { www.SceneTime.com }/tt1708.rp.xvid-sfm.r14 (14 MB)
  • Time.Team.S17E08.REPACK.WS.PDTV.XviD-SFM - { www.SceneTime.com }/tt1708.rp.xvid-sfm.r15 (14 MB)
  • Time.Team.S17E08.REPACK.WS.PDTV.XviD-SFM - { www.SceneTime.com }/tt1708.rp.xvid-sfm.r16 (14 MB)
  • Time.Team.S17E08.REPACK.WS.PDTV.XviD-SFM - { www.SceneTime.com }/tt1708.rp.xvid-sfm.r17 (14 MB)
  • Time.Team.S17E08.REPACK.WS.PDTV.XviD-SFM - { www.SceneTime.com }/tt1708.rp.xvid-sfm.r18 (14 MB)
  • Time.Team.S17E08.REPACK.WS.PDTV.XviD-SFM - { www.SceneTime.com }/tt1708.rp.xvid-sfm.r19 (14 MB)
  • Time.Team.S17E08.REPACK.WS.PDTV.XviD-SFM - { www.SceneTime.com }/tt1708.rp.xvid-sfm.r20 (14 MB)
  • Time.Team.S17E08.REPACK.WS.PDTV.XviD-SFM - { www.SceneTime.com }/tt1708.rp.xvid-sfm.r21 (14 MB)
  • Time.Team.S17E08.REPACK.WS.PDTV.XviD-SFM - { www.SceneTime.com }/tt1708.rp.xvid-sfm.r22 (14 MB)
  • Time.Team.S17E08.REPACK.WS.PDTV.XviD-SFM - { www.SceneTime.com }/tt1708.rp.xvid-sfm.r23 (6.5 MB)
  • Time.Team.S17E08.REPACK.WS.PDTV.XviD-SFM - { www.SceneTime.com }/tt1708.rp.xvid-sfm.rar (14 MB)
  • Time.Team.S17E08.REPACK.WS.PDTV.XviD-SFM - { www.SceneTime.com }/tt1708.rp.xvid-sfm.sfv (0.8 KB)

Comments:


Add report or comment (250 words maximum)

I'd like:  
Type text from captcha: