Our friends

Voodoo Circle 2011 Broken Heart Syndrome torrent

Torrent info

Date 2011-02-25 19:00:44
Category Music
Hash c463f57428094859c5e02ab75da6795fda934fbd
Seeds / Leechs 17 / 0 refresh
Full size 139 MB
Tracker http://tracker.thepiratebay.org/announce
Tags voodoo circle 2011 broken heart syndrome
Download – Voodoo Circle 2011 Broken Heart Syndrome Download direct – no client needed

Related torrents

Motion City Soundtrack - Broken Heart (New Single) - 2007
BBC Horizon 2011 How to Mend a Broken Heart HDTV x264 AC3 MVGrou
Voodoo Circle 2011 Broken Heart Syndrome
Broken Heart Collector - Broken Heart Collector (2011) [FLAC]

Torrent's content info

20 seconds audio samples

12- Wings Of The Fury_sample.mp3
Audio file info Duration: 00:04:17.27, start: 0.000000, bitrate: 320 kb/s
Stream #0.0: Audio: mp3, 44100 Hz, 2 channels, s16, 320 kb/s
13- Strangers Lost In Time (Bonus Track)_sample.mp3
Audio file info Duration: 00:04:18.32, start: 0.000000, bitrate: 319 kb/s
Stream #0.0: Audio: mp3, 44100 Hz, 2 channels, s16, 320 kb/s
05- Broken Heart Syndrome_sample.mp3
Audio file info Duration: 00:05:00.74, start: 0.000000, bitrate: 320 kb/s
Stream #0.0: Audio: mp3, 44100 Hz, 2 channels, s16, 320 kb/s
02- King Of Your Dreams_sample.mp3
Audio file info Duration: 00:04:59.90, start: 0.000000, bitrate: 319 kb/s
Stream #0.0: Audio: mp3, 44100 Hz, 2 channels, s16, 320 kb/s

Contents of download:

139 megabyte in 13 files
Voodoo Circle 2011 Broken Heart Syndrome
  • Voodoo Circle/2011 Broken Heart Syndrome/01- No Solution Blues.mp3 (8.8 MB)
  • Voodoo Circle/2011 Broken Heart Syndrome/02- King Of Your Dreams.mp3 (11 MB)
  • Voodoo Circle/2011 Broken Heart Syndrome/03- Devil's Daughter.mp3 (15 MB)
  • Voodoo Circle/2011 Broken Heart Syndrome/04- This Could Be Paradise.mp3 (8.2 MB)
  • Voodoo Circle/2011 Broken Heart Syndrome/05- Broken Heart Syndrome.mp3 (11 MB)
  • Voodoo Circle/2011 Broken Heart Syndrome/06- When Destiny Calls.mp3 (11 MB)
  • Voodoo Circle/2011 Broken Heart Syndrome/07- Blind Man.mp3 (12 MB)
  • Voodoo Circle/2011 Broken Heart Syndrome/08- Heal My Pain.mp3 (7.2 MB)
  • Voodoo Circle/2011 Broken Heart Syndrome/09- The Heavens Are Burning.mp3 (14 MB)
  • Voodoo Circle/2011 Broken Heart Syndrome/10- Don't Take My Heart.mp3 (10 MB)
  • Voodoo Circle/2011 Broken Heart Syndrome/11- I'm In Heaven.mp3 (10 MB)
  • Voodoo Circle/2011 Broken Heart Syndrome/12- Wings Of The Fury.mp3 (10 MB)
  • Voodoo Circle/2011 Broken Heart Syndrome/13- Strangers Lost In Time (Bonus Track).mp3 (10 MB)

Comments:


Add report or comment (250 words maximum)

I'd like:  
Type text from captcha: