Our friends

Go Radio- Lucky Street (full album 2011) (tdwp329) torrent

Torrent info

Date 2011-02-26 10:01:15
Category Music
Hash 57b59bd30c60e4a89a4cd8cc2a3fc037f8aef58f
Seeds / Leechs 60 / 2 refresh
Full size 50 MB
Tracker http://tracker.thepiratebay.org/announce
Tags radio lucky street full album 2011 tdwp329

Related torrents

Revo - We Are Revo [FULL ALBUM 2008-192Kbps]
Go Radio- Lucky Street (full album 2011) (tdwp329)
Kid_Ink-Daydreamer_(Street_Album)-2011-DjLeak
Desi Boyz- 320 Kbps- {Full Album}- [2011]- Mp3ViLLe

Torrent's content info

20 seconds audio samples

Go Radio - Any Other Heart [File2HD.com]_sample.mp3
Audio file info Duration: 00:04:01.63, start: 0.000000, bitrate: 128 kb/s
Stream #0.0: Audio: mp3, 22050 Hz, 2 channels, s16, 128 kb/s
Go Radio - Redemption In The Verse [File2HD.com]_sample.mp3
Audio file info Duration: 00:04:38.36, start: 0.000000, bitrate: 127 kb/s
Stream #0.0: Audio: mp3, 44100 Hz, 2 channels, s16, 128 kb/s
Go Radio - Kill The Beast [File2HD.com]_sample.mp3
Audio file info Duration: 00:03:25.66, start: 0.000000, bitrate: 127 kb/s
Stream #0.0: Audio: mp3, 44100 Hz, 2 channels, s16, 128 kb/s
Go Radio - Why I39m Home [File2HD.com]_sample.mp3
Audio file info Duration: 00:03:46.29, start: 0.000000, bitrate: 127 kb/s
Stream #0.0: Audio: mp3, 44100 Hz, 2 channels, s16, 128 kb/s

Contents of download:

50 megabyte in 14 files
Go Radio- Lucky Street (full album 2011) (tdwp329)
  • Go Radio- Lucky Street/Go Radio - Forever My Father (Featuring Erin And Daniel Lancaster) [File2HD.com].mp3 (4.5 MB)
  • Go Radio- Lucky Street/Go Radio - Redemption In The Verse [File2HD.com].mp3 (4.2 MB)
  • Go Radio- Lucky Street/Go Radio - The Truth Is [File2HD.com].mp3 (4.2 MB)
  • Go Radio- Lucky Street/Go Radio - Lucky Street [File2HD.com].mp3 (4 MB)
  • Go Radio- Lucky Street/Go Radio - Forever My Father [File2HD.com].mp3 (3.9 MB)
  • Go Radio- Lucky Street/Go Radio - Any Other Heart [File2HD.com].mp3 (3.7 MB)
  • Go Radio- Lucky Street/Go Radio - Why I39m Home [File2HD.com].mp3 (3.5 MB)
  • Go Radio- Lucky Street/Go Radio - House Of Hallways [File2HD.com].mp3 (3.4 MB)
  • Go Radio- Lucky Street/Go Radio - Strength To Stay [File2HD.com].mp3 (3.2 MB)
  • Go Radio- Lucky Street/Go Radio - Fight Fight (Reach For The Sky) [File2HD.com].mp3 (3.2 MB)
  • Go Radio- Lucky Street/Go Radio - Singing With The King [File2HD.com].mp3 (3.2 MB)
  • Go Radio- Lucky Street/Go Radio - Kill The Beast [File2HD.com].mp3 (3.1 MB)
  • Go Radio- Lucky Street/Go Radio - Hold On [File2HD.com].mp3 (3 MB)
  • Go Radio- Lucky Street/Go Radio - Swear It Like You Mean It [File2HD.com].mp3 (3 MB)

Comments:


Add report or comment (250 words maximum)

I'd like:  
Type text from captcha: