Our friends

Children Of Bodom-Relentless Reckless Forever 2011 320kbit Mp3-O torrent

Torrent info

Date 2011-03-07 21:47:04
Category Music
Hash 54c3235fe21283d8d535e94326f72ad5cc2d4904
Seeds / Leechs 35 / 2 refresh
Full size 83 MB
Tracker http://tracker.thepiratebay.org/announce
Tags children bodom relentless reckless forever 2011 320kbit

Related torrents

Het Goede Doel - Liefdewerk (2011), 320KBit(mp3), DMT
Children Of Bodom- Relentless Reckless Forever (tdwp329)
Children Of Bodom-Relentless Reckless Forever 2011 320kbit Mp3-O
Dancefloor Hits Mania(2011)(320Kbit)(mp3)(2CD) TBS

Torrent's content info

20 seconds audio samples

5.Relentless, Reckless Forever_sample.mp3
Audio file info Duration: 00:04:40.68, start: 0.000000, bitrate: 320 kb/s
Stream #0.0: Audio: mp3, 44100 Hz, stereo, s16, 320 kb/s
7.Cry of the Nihilist_sample.mp3
Audio file info Duration: 00:03:29.16, start: 0.000000, bitrate: 320 kb/s
Stream #0.0: Audio: mp3, 44100 Hz, stereo, s16, 320 kb/s
8.Was It Worth It_sample.mp3
Audio file info Duration: 00:04:05.05, start: 0.000000, bitrate: 320 kb/s
Stream #0.0: Audio: mp3, 44100 Hz, stereo, s16, 320 kb/s
6.Ugly_sample.mp3
Audio file info Duration: 00:04:11.45, start: 0.000000, bitrate: 320 kb/s
Stream #0.0: Audio: mp3, 44100 Hz, stereo, s16, 320 kb/s

Contents of download:

83 megabyte in 9 files
Children Of Bodom-Relentless Reckless Forever 2011 320kbit Mp3-O
  • Children.Of.Bodom-Relentless.Reckless.Forever.2011.320kbit.Mp3-OEric/1.Not My Funeral.mp3 (11 MB)
  • Children.Of.Bodom-Relentless.Reckless.Forever.2011.320kbit.Mp3-OEric/5.Relentless, Reckless Forever.mp3 (11 MB)
  • Children.Of.Bodom-Relentless.Reckless.Forever.2011.320kbit.Mp3-OEric/6.Ugly.mp3 (10 MB)
  • Children.Of.Bodom-Relentless.Reckless.Forever.2011.320kbit.Mp3-OEric/4.Pussyfoot Miss Suicide.mp3 (9.5 MB)
  • Children.Of.Bodom-Relentless.Reckless.Forever.2011.320kbit.Mp3-OEric/8.Was It Worth It.mp3 (9.3 MB)
  • Children.Of.Bodom-Relentless.Reckless.Forever.2011.320kbit.Mp3-OEric/2.Shovel Knockout.mp3 (9.2 MB)
  • Children.Of.Bodom-Relentless.Reckless.Forever.2011.320kbit.Mp3-OEric/3.Roundtrip to Hell and Back.mp3 (8.7 MB)
  • Children.Of.Bodom-Relentless.Reckless.Forever.2011.320kbit.Mp3-OEric/7.Cry of the Nihilist.mp3 (8 MB)
  • Children.Of.Bodom-Relentless.Reckless.Forever.2011.320kbit.Mp3-OEric/9.NorthpoleThrowdown.mp3 (6.6 MB)

Comments:


Add report or comment (250 words maximum)

I'd like:  
Type text from captcha: