Our friends

[Local-Raws] IRONMAN 02 RAW (960x540 x264 AAC CSSD).mp4 torrent

Torrent info

Date 2011-03-21 13:09:22
Category Anime
Hash fea2779174d009fe59f8cf3c3f8fc8718e92d883
Seeds / Leechs -1 / -1 refresh
Full size 242 MB
Tracker http://nyaatorrents.info:3277/scrape
Tags local raws ironman 960x540 x264 cssd

Related torrents

[Zero-Raws] Koukaku no Regios - 01 RAW (TVK 960x540 x264).mp4
[Zero-Raws] Koukaku no Regios - 02 RAW (TVK 960x540 x264).mp4
[Zero-Raws] Koukaku no Regios - 06 RAW (TVK 960x540 x264).mp4
[Zero-Raws] Koukaku no Regios - 07 RAW (TVK 960x540 x264).mp4

Torrent's content info

[Local-Raws] IRONMAN 02 RAW (960x540 x264 AAC CSSD).mp4

[Local-Raws] IRONMAN 02 RAW (960x540 x264 AAC CSSD).mp4 screenshot
  • Screenshot 1
  • Screenshot 2
  • Screenshot 3
  • Screenshot 4
  • Screenshot 5
  • Screenshot 6
  • Screenshot 7
  • Screenshot 8
  • Screenshot 9

Duration: 00:23:29.70, start: 0.000000, bitrate: 1440 kb/s
Stream #0.0(und): Video: h264, yuv420p, 960x540, 29.97 tb(r)
Stream #0.1(und): Audio: aac, 48000 Hz, stereo, s16

Check the movie's sound/language:

Contents of download:

242 megabyte in 1 files
[Local-Raws] IRONMAN 02 RAW (960x540 x264 AAC CSSD).mp4
  • [Local-Raws] IRONMAN 02 RAW (960x540 x264 AAC CSSD).mp4 (242 MB)

Comments:


Add report or comment (250 words maximum)

I'd like:  
Type text from captcha: