Our friends

Complete - Criminal Minds - Season 2 torrent

Torrent info

Date 2011-03-22 01:31:11
Category Series/TV Shows
Hash c4e7b80a6bfc3beafc9485d7bcfce9a782c08a07
Seeds / Leechs -1 / -1 refresh
Full size 9096 MB
Tracker http://tracker.publicbt.com/scrape
Tags complete criminal minds season
Download – Complete - Criminal Minds - Season 2 Download direct – no client needed

Related torrents

Criminal Minds Season 5 Complete mkv 720p
Criminal Minds Season 1 Complete 720p (WEB-DL)
Criminal Minds Season 7:Episode 20(xCrazy0328x)
Criminal Minds Season 7:Episode 21(xCrazy0328x)

Criminal Minds overview

Description

In Seattle for a short time are missing four young girls. There is a version that in the city has appeared a serial maniac. During the investigation of this criminal case is taken FBI special unit that specializes in behavioral analysis of actions of criminals. At the head of this unit is Jason Gideon, who with his buddy is trying to calculate the offender, making him a psychological portrait. Jason - not frequent guest of the FBI crime labs. He and his team visit crime scenes, interview witnesses, analyze and study the psychological aspect of the criminal's life... The plot of each episode is original, and keeps in suspense, the ending is always unpredictable. Understanding the human person, her actions and vices, hidden motives and desires of hazardous level of genius. They are not hiding. They are not to hide the truth. They will find the culprit. They know what you think. They are already behind you. They - the FBI. They are from the department of behavior analysis. Their main weapon - their mind. Each team member is unique. And almost everyone has a skeleton in the closet. But when they get together for the investigation of another matter - they are one unit. They see what others do not notice. They know who and why. They are the best.

Torrent's content info

criminal.minds.222.avi

Complete - Criminal Minds - Season 2 screenshot
  • Screenshot 1
  • Screenshot 2
  • Screenshot 3
  • Screenshot 4
  • Screenshot 5
  • Screenshot 6
  • Screenshot 7
  • Screenshot 8
  • Screenshot 9

Duration: 00:42:59.71, start: 0.000000, bitrate: 2277 kb/s
Stream #0.0: Video: mpeg4, yuv420p, 960x528 [PAR 1:1 DAR 20:11], 23.98 tb(r)
Stream #0.1: Audio: ac3, 48000 Hz, 5:1, s16, 384 kb/s

Check the movie's sound/language:

Contents of download:

9096 megabyte in 24 files
Complete - Criminal Minds - Season 2
  • Criminal Minds Season 2/criminal.minds.222.avi (700 MB)
  • Criminal Minds Season 2/criminal.minds.221.avi (699 MB)
  • Criminal Minds Season 2/criminal.minds.210.avi (352 MB)
  • Criminal Minds Season 2/criminal.minds.209.avi (351 MB)
  • Criminal Minds Season 2/criminal.minds.207.avi (351 MB)
  • Criminal Minds Season 2/criminal.minds.203.avi (351 MB)
  • Criminal Minds Season 2/criminal.minds.208.avi (351 MB)
  • Criminal Minds Season 2/criminal.minds.213.avi (351 MB)
  • Criminal Minds Season 2/criminal.minds.202.avi (351 MB)
  • Criminal Minds Season 2/criminal.minds.220.avi (351 MB)
  • Criminal Minds Season 2/criminal.minds.217.avi (351 MB)
  • Criminal Minds Season 2/criminal.minds.205.avi (350 MB)
  • Criminal Minds Season 2/criminal.minds.216.avi (350 MB)
  • Criminal Minds Season 2/criminal.minds.219.avi (350 MB)
  • Criminal Minds Season 2/criminal.minds.214.avi (350 MB)
  • Criminal Minds Season 2/criminal.minds.223.avi (350 MB)
  • Criminal Minds Season 2/criminal.minds.201.avi (349 MB)
  • Criminal Minds Season 2/criminal.minds.218.avi (349 MB)
  • Criminal Minds Season 2/criminal.minds.215.avi (348 MB)
  • Criminal Minds Season 2/criminal.minds.204.avi (348 MB)
  • Criminal Minds Season 2/criminal.minds.206.avi (348 MB)
  • Criminal Minds Season 2/criminal.minds.224.avi (348 MB)
  • Criminal Minds Season 2/Criminal.Minds.211.avi (348 MB)
  • Criminal Minds Season 2/criminal.minds.212.avi (348 MB)

Comments:


Add report or comment (250 words maximum)

I'd like:  
Type text from captcha: