Our friends

Project Runway S08E11 720p HDTV x264-MOMENTUM torrent

Torrent info

Date 2011-03-22 12:57:21
Category Series/TV Shows
Hash df7daece31ca61fdd611dc8637e093836fbc71bf
Seeds / Leechs -1 / -1 refresh
Full size 1492 MB
Tracker http://tracker.openbittorrent.com/scrape
Tags project runway s08e11 720p hdtv x264 momentum
Download – Project Runway S08E11 720p HDTV x264-MOMENTUM Download direct – no client needed

Related torrents

Scrubs S08E11 720p HDTV x264-CTU-[tracker BTARENA org]
[ www.Torrenting.com ] - Project.Runway.S11E04.720p.HDTV.x264-YesTV
[ www.Torrenting.com ] - Project.Runway.S11E05.720p.HDTV.x264-YesTV
[ www.Torrenting.com ] - Project.Runway.S11E10.720p.HDTV.x264-YesTV

Project Runway (2005) overview

Description

Twelve unknown fashion designers from all over America have a chance to become famous in the world of fashion, and receive 100,000 dollars for the promotion of their own business. To do this they will have to undergo a series of difficult tests in the harsh conditions of shortage of time, given the limited subject matter and materials for the job. The main plus of this project is that a judge respectful of participants and correctly point out their faults and mistakes. Competitions themselves are also quite interesting and diverse. One of my favorite - this is when participants are given anything of what is practically impossible to make normal clothes, such as food or plants, and they, of course, have to work of this "raw materials" is something that would slay the judges on the spot! And it turns out after all :) more fun to watch, because every designer's vision of ideal attire. Some like romantic dresses, flowered, and who is gothic lace. Of course, when designers see their work on the catwalk, they believe that out of his own outfit the best, but unfortunately the judges did not always agree with them.

Torrent's content info

project.runway.s08e11.720p.hdtv.x264-momentum.mkv

Project Runway S08E11 720p HDTV x264-MOMENTUM screenshot
  • Screenshot 1
  • Screenshot 2
  • Screenshot 3
  • Screenshot 4
  • Screenshot 5
  • Screenshot 6
  • Screenshot 7
  • Screenshot 8
  • Screenshot 9

Duration: 01:02:51.18, start: 0.000000, bitrate: N/A
Stream #0.0(eng): Video: h264, yuv420p, 1280x720, PAR 1:1 DAR 16:9, 24 tbr, 1k tbn, 47.95 tbc
Stream #0.1: Audio: ac3, 48000 Hz, 2 channels, s16

Check the movie's sound/language:

Text sample Text sample from www.Torrentday.com.txt

www.TorrentDay.com - Your Gateway To The Scene.

we are the most on-time tracker around the globe, You can download releases whenever they release out by group uploaders.

no Wait Time, no Virus, Very Fast Download Speed.

Join us now at http://www.torrentday.com


Please join us and support TorrentDay.com to grow faster :)


Thank you =)

Come on, Join us at: http://www.Torrentday.com

www.TorrentDay.com
www.TorrentDay.com
www.TorrentDay.com
www.TorrentDay.com




Text sample Text sample from Please Read This Guide Now.txt

www.TorrentDay.com - Your Gateway To The Scene.

we are the most on-time tracker around the globe, You can download releases whenever they release out by group uploaders.

no Wait Time, no Virus, Very Fast Download Speed.

Join us now at http://www.torrentday.com


Please join us and support TorrentDay.com to grow faster :)


Thank you =)

Come on, Join us at: http://www.Torrentday.com

www.TorrentDay.com
www.TorrentDay.com
www.TorrentDay.com
www.TorrentDay.com




Text sample Text sample from project.runway.s08e11.720p.hdtv.x264-momentum.nfo

Project.Runway.S08E11.720p.HDTV.x264-MOMENTUM

Release Date.....: 2010-10-08
Filesize.........: 1493 MB
Runtime..........: 01:02:51
Video............: 3061 kb/s x264
Audio............: 256 kb/s, 2ch AC3
Frame Size.......: 1280x720
Frame Rate.......: 23.976




Contents of download:

1492 megabyte in 4 files
Project Runway S08E11 720p HDTV x264-MOMENTUM
  • Project.Runway.S08E11.720p.HDTV.x264-MOMENTUM [NO-RAR] - [ www.torrentday.com ]/Please Read This Guide Now.txt (0.5 KB)
  • Project.Runway.S08E11.720p.HDTV.x264-MOMENTUM [NO-RAR] - [ www.torrentday.com ]/project.runway.s08e11.720p.hdtv.x264-momentum.mkv (1492 MB)
  • Project.Runway.S08E11.720p.HDTV.x264-MOMENTUM [NO-RAR] - [ www.torrentday.com ]/project.runway.s08e11.720p.hdtv.x264-momentum.nfo (0.3 KB)
  • Project.Runway.S08E11.720p.HDTV.x264-MOMENTUM [NO-RAR] - [ www.torrentday.com ]/www.Torrentday.com.txt (0.5 KB)

Comments:


Add report or comment (250 words maximum)

I'd like:  
Type text from captcha: