Our friends

Stevie Wonder - Higher Ground (Beat Club)(2nafish) torrent

Torrent info

Date 2011-03-24 00:52:53
Category Music
Hash 7711146519465450e041a8a84a70924120226c29
Seeds / Leechs -1 / -1 refresh
Full size 103 MB
Tracker http://tracker.openbittorrent.com/scrape
Tags stevie wonder higher ground beat club 2nafish

Related torrents

Stevie Wonder - Greatest Hits
Stevie Wonder - Real Hits - (Alternative Greatest Hits)
The Flower Pot Men - Lets Go To San Francisco (Beat Club 1967)
Stevie Wonder Beat Club 1973

Higher Ground (2011) overview

Genre: drama Director: Farmiga, Vera

Description

The main heroine of the picture "Higher Ground”, Caroline Briggs (Vera Farmiga), was born in 1960 and grew up in a poor family. When she was 17, she became pregnant a few months later and married. Without any special plans her life continued further, until she found Jesus. It started with innocent familiarity of rare moments when Caroline lingered in front of TV, listening to the preacher. But soon a cursory look at Bible was replaced by a deep faith, the heroine of the movie "Higher Ground" has turned into a woman, devoted herself to religion. All imbued with divine meaning, she spent hours in prayer, kneeling and studying Bible. And only then, when her marriage began to crumble, Caroline forced herself to look from the other side on her entire adult life, venturing to question religious dogma.

Torrent's content info

Stevie_Wonder_-_Higher_Ground_(Beat_Club-2nafish).mpg

Stevie Wonder - Higher Ground (Beat Club)(2nafish) screenshot
  • Screenshot 1
  • Screenshot 2
  • Screenshot 3
  • Screenshot 4
  • Screenshot 5
  • Screenshot 6
  • Screenshot 7
  • Screenshot 8
  • Screenshot 9

Duration: 00:02:57.76, start: 0.366422, bitrate: 4860 kb/s
Stream #0.0[0x1e0]: Video: mpeg2video, yuv420p, 720x480 [PAR 8:9 DAR 4:3], 6124 kb/s, 29.97 tbr, 90k tbn, 59.94 tbc
Stream #0.1[0x80]: Audio: ac3, 48000 Hz, stereo, s16, 448 kb/s

Check the movie's sound/language:

Contents of download:

103 megabyte in 1 files
Stevie Wonder - Higher Ground (Beat Club)(2nafish)
  • Stevie_Wonder_-_Higher_Ground_(Beat_Club-2nafish).mpg (103 MB)

Comments:


Add report or comment (250 words maximum)

I'd like:  
Type text from captcha: