Our friends

La.Liga.Barcelona.vs.Real.Madrid.Full.Match.Sky.Sports.29.11.10 torrent

Torrent info

Date 2011-03-24 13:06:46
Category Series/TV Shows
Hash 41ac944eb1178a96f084c0acddae1235c4da2eea
Seeds / Leechs 3 / 1 refresh
Full size 850 MB
Tracker http://tracker.publicbt.com/scrape
Tags liga barcelona real madrid full match sports

Related torrents

F C Barcelona-Real Madrid 13-12-08 SPANISH DSR XVID [www TodoTorrente com] (3S/5L)
La Liga 2009 05 02 Real Madrid vs Barcelona PDTV XviD-T0nK4 (www FilmsBT com)
La.Liga.Barcelona.vs.Real.Madrid.Full.Match.Sky.Sports.29.11.10
02 Supercopa ESP-vuelta (17-08-11) FC Barcelona-Real Madrid

Torrent's content info

2 nd Half.avi

La.Liga.Barcelona.vs.Real.Madrid.Full.Match.Sky.Sports.29.11.10 screenshot
  • Screenshot 1
  • Screenshot 2
  • Screenshot 3
  • Screenshot 4
  • Screenshot 5
  • Screenshot 6
  • Screenshot 7
  • Screenshot 8
  • Screenshot 9

Duration: 00:53:04.80, start: 0.000000, bitrate: 1134 kb/s
Stream #0.0: Video: mpeg4, yuv420p, 624x352 [PAR 1:1 DAR 39:22], 25 tbr, 25 tbn, 25 tbc
Stream #0.1: Audio: mp3, 48000 Hz, 2 channels, s16, 128 kb/s

Check the movie's sound/language:

Contents of download:

850 megabyte in 2 files
La.Liga.Barcelona.vs.Real.Madrid.Full.Match.Sky.Sports.29.11.10
  • La Liga - Barcelona v. Real Madrid - 29 - Nov - 2010/2 nd Half.avi (431 MB)
  • La Liga - Barcelona v. Real Madrid - 29 - Nov - 2010/1st Half.avi (420 MB)

Comments:


Add report or comment (250 words maximum)

I'd like:  
Type text from captcha: