Our friends

The A-Team[2010]DvDrip[Eng]-FXG torrent

Torrent info

Date 2011-03-25 12:55:58
Category Movies
Hash 0f5bc2b588065bfc0f3996e3d4d61d823a90d7cf
Seeds / Leechs -1 / -1 refresh
Full size 700 MB
Tracker http://genesis.1337x.org:1337/scrape
Tags team 2010 dvdrip
Download – The A-Team[2010]DvDrip[Eng]-FXG Download direct – no client needed

Related torrents

Ejder Kapani (2010) DVDRip XviD DivXNL-Team(dutch subs NL)
The A Team 2010 DVDRip XviD Audio Latino-JcGoku21
The A-Team 2010 DVDRip XviD-iLG
The A-Team (2010) DVDRip XviD AC3 peaSoup

Torrent's content info

The A-Team[2010]DvDrip[Eng]-FXG.avi

The A-Team[2010]DvDrip[Eng]-FXG screenshot
  • Screenshot 1
  • Screenshot 2
  • Screenshot 3
  • Screenshot 4
  • Screenshot 5
  • Screenshot 6
  • Screenshot 7
  • Screenshot 8
  • Screenshot 9

Duration: 01:53:55.16, start: 0.000000, bitrate: 858 kb/s
Stream #0.0: Video: mpeg4, yuv420p, 616x256 [PAR 1:1 DAR 77:32], 25 tbr, 25 tbn, 25 tbc
Stream #0.1: Audio: mp3, 44100 Hz, 2 channels, s16, 112 kb/s

Check the movie's sound/language:

Text sample Text sample from FXG™.nfo

Read full text


Contents of download:

700 megabyte in 3 files
The A-Team[2010]DvDrip[Eng]-FXG
  • The A-Team[2010]DvDrip[Eng]-FXG/FXG™.nfo (4.7 KB)
  • The A-Team[2010]DvDrip[Eng]-FXG/The A-Team[2010]DvDrip[Eng]-FXG.avi (700 MB)
  • The A-Team[2010]DvDrip[Eng]-FXG/The A-Team[Eng][Subs].srt (0.3 MB)

Comments:


Add report or comment (250 words maximum)

I'd like:  
Type text from captcha: