Our friends

King Harvest King Harvest(1976)[vinyl rip] torrent

Torrent info

Date 2011-03-25 12:59:13
Category Music
Hash 0445f162b112fca5196e90719aa1002057861969
Seeds / Leechs -1 / -1 refresh
Full size 210 MB
Tracker http://tracker.openbittorrent.com/scrape
Tags king harvest king harvest 1976 vinyl
Download – King Harvest King Harvest(1976)[vinyl rip] Download direct – no client needed

Related torrents

Henry Mancini cop show themes (1976) vinyl rip 320kbps
BB King - The King Of Blues 1980
Reef The Lost Cauze And King Magnetic-King And The Cauze-(Bootleg)-2009-AHS
Kiss - Destroyer 1976 [Vinyl] HMV

Torrent's content info

20 seconds audio samples

King Harvest - 03 - Country Pie.flac_sample.mp3
Audio file info Duration: 00:03:57.09, bitrate: 870 kb/s
Stream #0.0: Audio: flac, 44100 Hz, 2 channels, s16
King Harvest - 06 - As Soon As We Can Get It Together.flac_sample.mp3
Audio file info Duration: 00:03:04.49, bitrate: 834 kb/s
Stream #0.0: Audio: flac, 44100 Hz, 2 channels, s16
King Harvest - 09 - Jumbee.flac_sample.mp3
Audio file info Duration: 00:04:09.58, bitrate: 777 kb/s
Stream #0.0: Audio: flac, 44100 Hz, 2 channels, s16
King Harvest - 01 - Borderline.flac_sample.mp3
Audio file info Duration: 00:03:58.73, bitrate: 882 kb/s
Stream #0.0: Audio: flac, 44100 Hz, 2 channels, s16

Text sample Text sample from Torrent downloaded from Demonoid.com.txt

Torrent downloaded from http://www.Demonoid.com




Text sample Text sample from dickthespic.txt

Check upcoming dickthespic uploads here

http://dickthespic.org

Enjoy your listening

Dickthespic




Text sample Text sample from Torrent downloaded from Limetorrents.com.txt.txt

Torrent downloaded from Limetorrents.com.txt




Contents of download:

210 megabyte in 12 files
King Harvest King Harvest(1976)[vinyl rip]
  • King Harvest...King Harvest(1976)[vinyl rip]/King Harvest - 07 - Rue Du Four Rag-Fly By.flac (29 MB)
  • King Harvest...King Harvest(1976)[vinyl rip]/King Harvest - 02 - Vaea (Vy-Ya).flac (29 MB)
  • King Harvest...King Harvest(1976)[vinyl rip]/King Harvest - 01 - Borderline.flac (25 MB)
  • King Harvest...King Harvest(1976)[vinyl rip]/King Harvest - 03 - Country Pie.flac (25 MB)
  • King Harvest...King Harvest(1976)[vinyl rip]/King Harvest - 09 - Jumbee.flac (23 MB)
  • King Harvest...King Harvest(1976)[vinyl rip]/King Harvest - 08 - Old Friends.flac (20 MB)
  • King Harvest...King Harvest(1976)[vinyl rip]/King Harvest - 04 - Shine On.flac (20 MB)
  • King Harvest...King Harvest(1976)[vinyl rip]/King Harvest - 05 - Little Bit Like Magic.flac (20 MB)
  • King Harvest...King Harvest(1976)[vinyl rip]/King Harvest - 06 - As Soon As We Can Get It Together.flac (18 MB)
  • King Harvest...King Harvest(1976)[vinyl rip]/dickthespic.txt (0.1 KB)
  • King Harvest...King Harvest(1976)[vinyl rip]/Torrent downloaded from Demonoid.com.txt (0 KB)
  • King Harvest...King Harvest(1976)[vinyl rip]/Torrent downloaded from Limetorrents.com.txt.txt (0 KB)

Comments:


Add report or comment (250 words maximum)

I'd like:  
Type text from captcha: