Our friends

House MD Season 6 Complete DVDRip - x264 - MKV by RiddlerA torrent

Torrent info

Date 2011-03-30 01:27:28
Category Series/TV Shows
Hash a3fa10dd8c1d64b8c6d99edca4a9383a09c6b944
Seeds / Leechs -1 / -1 refresh
Full size 2738 MB
Tracker http://genesis.1337x.org:1337/scrape
Tags house season complete dvdrip x264 riddlera

Related torrents

LIFE 2007 - Season 1-2 Complete DVDRip x264-ILPruny
Lost.Complete.Season.2.DVDRip.x264.aac.9.Subs
Lost.Complete.Season.3.DVDRip.x264.aac.8.Subs
Lost.Complete.Season.4.DVDRip.x264.aac.10.Subs

Torrent's content info

House - [6x01] - Broken.mkv

House MD Season 6 Complete DVDRip - x264 - MKV by RiddlerA screenshot
  • Screenshot 1
  • Screenshot 2
  • Screenshot 3
  • Screenshot 4
  • Screenshot 5
  • Screenshot 6
  • Screenshot 7
  • Screenshot 8
  • Screenshot 9

Duration: 01:28:41.04, start: 0.000000, bitrate: N/A
Stream #0.0(eng): Video: h264, yuv420p, 624x352, PAR 1:1 DAR 39:22, 23.98 tbr, 1k tbn, 47.95 tbc
Stream #0.1(eng): Audio: aac, 24000 Hz, stereo, s16
Stream #0.2(eng): Subtitle: 0x0000

Check the movie's sound/language:

Text sample Text sample from Torrent downloaded from AhaShare.com.txt

Share the fun!!!
Torrent downloaded from AhaShare.com.txt




Text sample Text sample from Torrent_downloaded_from_Demonoid.com.txt

Torrent downloaded from http://www.Demonoid.com




Text sample Text sample from Read Me.txt

Like my Torrent Quality
Would like to download more

===================================================
Visit the following Sites for more of my Uploads:
===================================================

http://thepiratebay.org/user/RiddlerA
or
http://1337x.org/user/RiddlerA/
or
http://www.ahashare.com/user-torrents-thumbnaill.php?userid=73717
or
http://www.demonoid.com/users/RiddlerA
or
http://www.torrentz.com/search?q=RiddlerA




Contents of download:

2738 megabyte in 45 files
House MD Season 6 Complete DVDRip - x264 - MKV by RiddlerA
  • House MD Season 6/House - [6x01] - Broken.mkv (249 MB)
  • House MD Season 6/House - [6x01] - Broken.srt (84.6 KB)
  • House MD Season 6/House - [6x02] - Epic Fail.mkv (124 MB)
  • House MD Season 6/House - [6x02] - Epic Fail.srt (56.5 KB)
  • House MD Season 6/House - [6x03] - The Tyrant.mkv (124 MB)
  • House MD Season 6/House - [6x03] - The Tyrant.srt (51.3 KB)
  • House MD Season 6/House - [6x04] - Instant Karma.mkv (124 MB)
  • House MD Season 6/House - [6x04] - Instant Karma.srt (54.5 KB)
  • House MD Season 6/House - [6x05] - Brave Heart.mkv (125 MB)
  • House MD Season 6/House - [6x05] - Brave Heart.srt (50.5 KB)
  • House MD Season 6/House - [6x06] - Known Unknowns.mkv (124 MB)
  • House MD Season 6/House - [6x06] - Known Unknowns.srt (54.5 KB)
  • House MD Season 6/House - [6x07] - Teamwork.mkv (124 MB)
  • House MD Season 6/House - [6x07] - Teamwork.srt (56.9 KB)
  • House MD Season 6/House - [6x08] - Ignorance is Bliss.mkv (124 MB)
  • House MD Season 6/House - [6x08] - Ignorance is Bliss.srt (57.8 KB)
  • House MD Season 6/House - [6x09] - Wilson.mkv (124 MB)
  • House MD Season 6/House - [6x09] - Wilson.srt (54.8 KB)
  • House MD Season 6/House - [6x10] - The Down Low.mkv (124 MB)
  • House MD Season 6/House - [6x10] - The Down Low.srt (56.7 KB)
  • House MD Season 6/House - [6x11] - Remorse.mkv (124 MB)
  • House MD Season 6/House - [6x11] - Remorse.srt (56.8 KB)
  • House MD Season 6/House - [6x12] - Moving the Chains.mkv (124 MB)
  • House MD Season 6/House - [6x12] - Moving the Chains.srt (60.1 KB)
  • House MD Season 6/House - [6x13] - 5 to 9.mkv (125 MB)
  • House MD Season 6/House - [6x13] - 5 to 9.srt (56.8 KB)
  • House MD Season 6/House - [6x14] - Private Lives.mkv (124 MB)
  • House MD Season 6/House - [6x14] - Private Lives.srt (55.6 KB)
  • House MD Season 6/House - [6x15] - Black Hole.mkv (124 MB)
  • House MD Season 6/House - [6x15] - Black Hole.srt (49.6 KB)
  • House MD Season 6/House - [6x16] - Lockdown.mkv (124 MB)
  • House MD Season 6/House - [6x16] - Lockdown.srt (42.4 KB)
  • House MD Season 6/House - [6x17] - Knight Fall.mkv (124 MB)
  • House MD Season 6/House - [6x17] - Knight Fall.srt (51.8 KB)
  • House MD Season 6/House - [6x18] - Open and Shut.mkv (124 MB)
  • House MD Season 6/House - [6x18] - Open and Shut.srt (59.3 KB)
  • House MD Season 6/House - [6x19] - The Choice.mkv (124 MB)
  • House MD Season 6/House - [6x19] - The Choice.srt (54.7 KB)
  • House MD Season 6/House - [6x20] - Baggage.mkv (124 MB)
  • House MD Season 6/House - [6x20] - Baggage.srt (61.1 KB)
  • House MD Season 6/House - [6x21] - Help Me.mkv (125 MB)
  • House MD Season 6/House - [6x21] - Help Me.srt (43.9 KB)
  • House MD Season 6/Read Me.txt (0.4 KB)
  • House MD Season 6/Torrent downloaded from AhaShare.com.txt (0.1 KB)
  • House MD Season 6/Torrent_downloaded_from_Demonoid.com.txt (0 KB)

Comments:


Add report or comment (250 words maximum)

I'd like:  
Type text from captcha: