Our friends

A Nightmare on Elm Street 2010 DVDRip XviD-Larceny torrent

Torrent info

Date 2011-03-31 01:46:43
Category Movies
Hash 8905fc2de1a7e2a84dce5ff83bb01b68742d6c4a
Seeds / Leechs 2 / 0 refresh
Full size 703 MB
Tracker http://exodus.1337x.org/scrape
Tags nightmare street 2010 dvdrip xvid larceny

Related torrents

A Nightmare On Elm Street *2010* [DVDRip XviD-miguel] [Multi 14]
A Nightmare On Elm Street *2010* [DVDRip XviD-miguel] [ENG]
A Nightmare on Elm Street 2010 DVDRip XVID AC3-lOVE
A Nightmare on Elm Street 2010 DVDRip XviD-Larceny

A Nightmare on Elm Street (2010) overview

Genre: horror, thriller, mystery Director: Bayer, Samuel

Description

A group of teenagers from the suburbs has the same nightmare: in the dreams for them is sneaking up a creepy, disfigured killer - Freddy Krueger. They can protect each other in reality, but while dream - are one on one with a nightmare come to life, and the chance to escape the rapidly approaching zero ... in fact, murdered in the sleep, they die in reality. "A Nightmare on the Elm Street" movie is a sequel to the old version of the film, which became as popular as the first part. The sequel has gathered rather good box office in the world.

Torrent's content info

l-noes-xvid.avi

A Nightmare on Elm Street 2010 DVDRip XviD-Larceny screenshot
  • Screenshot 1
  • Screenshot 2
  • Screenshot 3
  • Screenshot 4
  • Screenshot 5
  • Screenshot 6
  • Screenshot 7
  • Screenshot 8
  • Screenshot 9

Duration: 01:35:29.89, start: 0.000000, bitrate: 1020 kb/s
Stream #0.0: Video: mpeg4, yuv420p, 576x240 [PAR 1:1 DAR 12:5], 23.98 tbr, 23.98 tbn, 23.98 tbc
Stream #0.1: Audio: mp3, 48000 Hz, 2 channels, s16, 128 kb/s

Check the movie's sound/language:

l-noes-subs.rar

  • l-noes-xvid.idx (0.2 MB)
  • l-noes-xvid.sub (12 MB)

Text sample Text sample from l-noes-xvid.nfo

Read full text


Text sample Text sample from NW RG.txt

You Have Downloaded This File From northernwarriors

For More Awesome Downloads, Visit http://northernwarriors.net
JOIN US NOW!




Contents of download:

703 megabyte in 7 files
A Nightmare on Elm Street 2010 DVDRip XviD-Larceny
  • A.Nightmare.on.Elm.Street.2010.DVDRip.XviD-Larceny/NW RG.nfo (13 KB)
  • A.Nightmare.on.Elm.Street.2010.DVDRip.XviD-Larceny/NW RG.txt (0.1 KB)
  • A.Nightmare.on.Elm.Street.2010.DVDRip.XviD-Larceny/Sample/l-noes-xvid-sample.avi (5.1 MB)
  • A.Nightmare.on.Elm.Street.2010.DVDRip.XviD-Larceny/Subs/l-noes-subs.rar (1.3 MB)
  • A.Nightmare.on.Elm.Street.2010.DVDRip.XviD-Larceny/Subs/l-noes-subs.sfv (0 KB)
  • A.Nightmare.on.Elm.Street.2010.DVDRip.XviD-Larceny/l-noes-xvid.avi (697 MB)
  • A.Nightmare.on.Elm.Street.2010.DVDRip.XviD-Larceny/l-noes-xvid.nfo (5.2 KB)

Comments:


Add report or comment (250 words maximum)

I'd like:  
Type text from captcha: