Our friends

The Doors - Love Me Two Times (Beat Club) (2nafish) torrent

Torrent info

Date 2011-04-05 00:48:28
Category Music
Hash 5467c80e923175e0417f8ac5f8263fb72dc2555c
Seeds / Leechs -1 / -1 refresh
Full size 171 MB
Tracker http://tracker.ilibr.org:6969/scrape
Tags doors love times beat club 2nafish

Related torrents

[BTasia org] [jdrama] [love song] yukan club episode 1 avi
Love In This Club (DJ SaM*T Remix) - Usher, Young Jezzy
Love In This Club ft Young Jeezy (HiGHEST QUALITY) mp3
Usher, Young Jeezy - Love in this Club (dirty) mpg

Torrent's content info

The_Doors_-_Love_Me_Two_Times_(Beat_Club-2nafish).mpg

The Doors - Love Me Two Times (Beat Club) (2nafish) screenshot
  • Screenshot 1
  • Screenshot 2
  • Screenshot 3
  • Screenshot 4
  • Screenshot 5
  • Screenshot 6
  • Screenshot 7
  • Screenshot 8
  • Screenshot 9

Duration: 00:04:51.04, start: 0.366422, bitrate: 4925 kb/s
Stream #0.0[0x1e0]: Video: mpeg2video, yuv420p, 720x480 [PAR 8:9 DAR 4:3], 6124 kb/s, 29.97 tb(r)
Stream #0.1[0x80]: Audio: ac3, 48000 Hz, stereo, s16, 448 kb/s

Check the movie's sound/language:

Contents of download:

171 megabyte in 1 files
The Doors - Love Me Two Times (Beat Club) (2nafish)
  • The_Doors_-_Love_Me_Two_Times_(Beat_Club-2nafish).mpg (171 MB)

Comments:


Add report or comment (250 words maximum)

I'd like:  
Type text from captcha: