Our friends

Shaggy - Best Of The Boombastic Collection (2008) vtwin88cube torrent

Torrent info

Date 2011-04-07 13:03:04
Category Music
Hash 91c60de4b596aa243ac1e3bebd0da55954184579
Seeds / Leechs 519 / 91 refresh
Full size 152 MB
Tracker http://tracker.irc.su/scrape
Tags shaggy best boombastic collection 2008 vtwin88cube

Related torrents

Shaggy - The Boombastic Collection - Best Of s-srg mrsidhq
Shaggy - The Boombastic Collection - Best Of + c0vers
Shaggy - Best Of The Boombastic Collection - 2008
Shaggy - Best Of The Boombastic Collection (2008) vtwin88cube

Torrent's content info

20 seconds audio samples

07.Don't Ask Her That (Feat. Nicole Scherzinger)_sample.mp3
Audio file info Duration: 00:04:24.79, start: 0.000000, bitrate: 320 kb/s
Stream #0.0: Audio: mp3, 44100 Hz, 2 channels, s16, 320 kb/s
17.Wild 2Nite (Feat. Olivia)_sample.mp3
Audio file info Duration: 00:03:26.59, start: 0.000000, bitrate: 320 kb/s
Stream #0.0: Audio: mp3, 44100 Hz, 2 channels, s16, 320 kb/s
08.It Wasn't Me (Feat. Rikrok)_sample.mp3
Audio file info Duration: 00:03:45.29, start: 0.000000, bitrate: 320 kb/s
Stream #0.0: Audio: mp3, 44100 Hz, 2 channels, s16, 320 kb/s
13.Ready Fi Di Ride_sample.mp3
Audio file info Duration: 00:03:29.17, start: 0.000000, bitrate: 320 kb/s
Stream #0.0: Audio: mp3, 44100 Hz, 2 channels, s16, 320 kb/s

Contents of download:

152 megabyte in 19 files
Shaggy - Best Of The Boombastic Collection (2008) vtwin88cube
  • Shaggy - Best Of The Boombastic Collection (2008) Mp3 320 vtwin88cube/07.Don't Ask Her That (Feat. Nicole Scherzinger).mp3 (10 MB)
  • Shaggy - Best Of The Boombastic Collection (2008) Mp3 320 vtwin88cube/16.Would You Be (Feat. Brian Gold Thompson).mp3 (10 MB)
  • Shaggy - Best Of The Boombastic Collection (2008) Mp3 320 vtwin88cube/01.Boombastic.mp3 (9.4 MB)
  • Shaggy - Best Of The Boombastic Collection (2008) Mp3 320 vtwin88cube/14.Church Heathen.mp3 (9.2 MB)
  • Shaggy - Best Of The Boombastic Collection (2008) Mp3 320 vtwin88cube/18.Gone With Angels.mp3 (9.2 MB)
  • Shaggy - Best Of The Boombastic Collection (2008) Mp3 320 vtwin88cube/03.Angel (Feat. Rayvon).mp3 (8.9 MB)
  • Shaggy - Best Of The Boombastic Collection (2008) Mp3 320 vtwin88cube/02.Strength Of A Woman.mp3 (8.7 MB)
  • Shaggy - Best Of The Boombastic Collection (2008) Mp3 320 vtwin88cube/08.It Wasn't Me (Feat. Rikrok).mp3 (8.6 MB)
  • Shaggy - Best Of The Boombastic Collection (2008) Mp3 320 vtwin88cube/09.Hope (Feat. Mister Mydas).mp3 (8.5 MB)
  • Shaggy - Best Of The Boombastic Collection (2008) Mp3 320 vtwin88cube/10.In The Summertime (Feat. Rayvon).mp3 (8.4 MB)
  • Shaggy - Best Of The Boombastic Collection (2008) Mp3 320 vtwin88cube/15.Leave It To Me (Feat. Brian & Tony Gold).mp3 (8.1 MB)
  • Shaggy - Best Of The Boombastic Collection (2008) Mp3 320 vtwin88cube/13.Ready Fi Di Ride.mp3 (8 MB)
  • Shaggy - Best Of The Boombastic Collection (2008) Mp3 320 vtwin88cube/17.Wild 2Nite (Feat. Olivia).mp3 (7.9 MB)
  • Shaggy - Best Of The Boombastic Collection (2008) Mp3 320 vtwin88cube/11.Luv Me Luv Me (Feat. Samantha Cole).mp3 (7.7 MB)
  • Shaggy - Best Of The Boombastic Collection (2008) Mp3 320 vtwin88cube/06.Those Days (Feat. Nasha).mp3 (7.7 MB)
  • Shaggy - Best Of The Boombastic Collection (2008) Mp3 320 vtwin88cube/04.Hey Sexy Lady (Feat. Brian & Tony Gold).mp3 (7.6 MB)
  • Shaggy - Best Of The Boombastic Collection (2008) Mp3 320 vtwin88cube/05.Feel The Rush.mp3 (7 MB)
  • Shaggy - Best Of The Boombastic Collection (2008) Mp3 320 vtwin88cube/12.Oh Carolina.mp3 (6.9 MB)
  • Shaggy - Best Of The Boombastic Collection (2008) Mp3 320 vtwin88cube/shaggy_best of_front.jpg (44.2 KB)

Comments:


Add report or comment (250 words maximum)

I'd like:  
Type text from captcha: