Our friends

The Inheritance 2011 DVDRip XviD-ViP3R torrent

Torrent info

Date 2011-04-17 16:47:02
Category Movies
Hash f354b78a9e83a06d9a522008fd82502b82ce627d
Seeds / Leechs -1 / -1 refresh
Full size 706 MB
Tracker http://tracker.thepiratebay.org/announce
Tags inheritance 2011 dvdrip xvid vip3r
Download – The Inheritance 2011 DVDRip XviD-ViP3R Download direct – no client needed

Related torrents

Zebra Crossing 2011 DVDRip XviD-ViP3R
Breadcrumbs 2011 DVDRip XviD-ViP3R
Thomas And Friends Pop Goes Thomas 2011 DVDRip XviD-ViP3R
The Inheritance 2011 DVDRip XviD-ViP3R

Torrent's content info

The.Inheritance.2011.DVDRip.XviD-ViP3R.avi

The Inheritance 2011 DVDRip XviD-ViP3R screenshot
  • Screenshot 1
  • Screenshot 2
  • Screenshot 3
  • Screenshot 4
  • Screenshot 5
  • Screenshot 6
  • Screenshot 7
  • Screenshot 8
  • Screenshot 9

Duration: 01:24:35.48, start: 0.000000, bitrate: 1154 kb/s
Stream #0.0: Video: mpeg4, yuv420p, 640x352 [PAR 1:1 DAR 20:11], 23.98 tbr, 23.98 tbn, 23.98 tbc
Stream #0.1: Audio: mp3, 48000 Hz, 2 channels, s16, 128 kb/s

Check the movie's sound/language:

Text sample Text sample from READ this before playing the Movie.txt

www.Torrenting.com - a special Tracker only for Movies.

we are the most on-time tracker around the globe, You can download releases whenever they release out by group uploaders.

no Wait Time, no Virus, Very Fast Download Speed.

Join us now at http://www.torrenting.com


Please join us and support Torrenting.com to grow faster :)


Thank you =)

Come on, Join The Legends at: http://www.Torrenting.com

www.Torrenting.com
www.Torrenting.com
www.Torrenting.com
www.Torrenting.com




Text sample Text sample from www.TorrentDay.com.txt

www.TorrentDay.com - Your Gateway To The Scene. we are the most on-time tracker around the globe, You can download releases whenever they release out by group uploaders. no Wait Time. Join us now :)




Text sample Text sample from The.Inheritance.2011.DVDRip.XviD-ViP3R.nfo

Read full text


Text sample Text sample from www.Torrenting.com.txt

www.Torrenting.com - a special Tracker only for Movies.

we are the most on-time tracker around the globe, You can download releases whenever they release out by group uploaders.

no Wait Time, no Virus, Very Fast Download Speed.

Join us now at http://www.torrenting.com


Please join us and support Torrenting.com to grow faster :)


Thank you =)

Come on, Join The Legends at: http://www.Torrenting.com

www.Torrenting.com
www.Torrenting.com
www.Torrenting.com
www.Torrenting.com




Contents of download:

706 megabyte in 6 files
The Inheritance 2011 DVDRip XviD-ViP3R
  • [ www.Torrenting.com ] - The.Inheritance.2011.DVDRip.XviD-ViP3R/READ this before playing the Movie.txt (0.5 KB)
  • [ www.Torrenting.com ] - The.Inheritance.2011.DVDRip.XviD-ViP3R/The.Inheritance.2011.DVDRip.XviD-ViP3R(Sample).avi (7.4 MB)
  • [ www.Torrenting.com ] - The.Inheritance.2011.DVDRip.XviD-ViP3R/The.Inheritance.2011.DVDRip.XviD-ViP3R.avi (698 MB)
  • [ www.Torrenting.com ] - The.Inheritance.2011.DVDRip.XviD-ViP3R/The.Inheritance.2011.DVDRip.XviD-ViP3R.nfo (2.3 KB)
  • [ www.Torrenting.com ] - The.Inheritance.2011.DVDRip.XviD-ViP3R/www.TorrentDay.com.txt (0.2 KB)
  • [ www.Torrenting.com ] - The.Inheritance.2011.DVDRip.XviD-ViP3R/www.Torrenting.com.txt (0.5 KB)

Comments:


Add report or comment (250 words maximum)

I'd like:  
Type text from captcha: