Our friends

Victima Del Deseo (DVDRip Erotico Spanish) torrent

Torrent info

Date 2011-04-22 23:47:16
Category Movies
Hash efc4172d3910b4a717dbd090fcbe43bd209d7369
Seeds / Leechs -1 / -1 refresh
Full size 743 MB
Tracker http://tracker.thepiratebay.org/announce
Tags victima deseo dvdrip erotico spanish
Download – Victima Del Deseo (DVDRip Erotico Spanish) Download direct – no client needed

Related torrents

Cars DVDRip 2CDs [Spanish][www nosolotorrents com]
John Rambo Vuelta Al Infierno (2007) DVDrip Xvid Spanish LanzamientosDivx Com
Mon Amour (DVDRip Erotico Spanish),
Ciclo Almodovar -La Ley Del Deseo [dvdrip][spanish]

Torrent's content info

Victima Del Deseo.(DVDRip.Erotico.Spanish).WwW.LoKoTorrents.CoM.avi

Victima Del Deseo (DVDRip Erotico Spanish) screenshot
  • Screenshot 1
  • Screenshot 2
  • Screenshot 3
  • Screenshot 4
  • Screenshot 5
  • Screenshot 6
  • Screenshot 7
  • Screenshot 8
  • Screenshot 9

Duration: 01:26:29.60, start: 0.000000, bitrate: 1201 kb/s
Stream #0.0: Video: mpeg4, yuv420p, 640x480 [PAR 1:1 DAR 4:3], 25 tbr, 25 tbn, 25 tbc
Stream #0.1: Audio: ac3, 48000 Hz, stereo, s16, 128 kb/s

Check the movie's sound/language:

Contents of download:

743 megabyte in 1 files
Victima Del Deseo (DVDRip Erotico Spanish)
  • Victima Del Deseo.(DVDRip.Erotico.Spanish).WwW.LoKoTorrents.CoM/Victima Del Deseo.(DVDRip.Erotico.Spanish).WwW.LoKoTorrents.CoM.avi (743 MB)

Comments:


Add report or comment (250 words maximum)

I'd like:  
Type text from captcha: