Our friends

Fast Five 2011 TS H264 AAC-GreatMagician (Kingdom-Release) torrent

Torrent info

Date 2011-05-02 07:46:51
Category Movies
Hash e07a70de245e1a61e4aee712882e1fdc5c9a74d4
Seeds / Leechs 316 / 55 refresh
Full size 1345 MB
Tracker http://tracker.thepiratebay.org/announce
Tags fast five 2011 h264 greatmagician kingdom release

Related torrents

The Rite 2011 720p BRRip H264 AAC-GreatMagician (Kingdom-Release
Fast Five 2011 TS H264 AAC-GreatMagician (Kingdom-Release)
Thor 2011 TS H264 AAC-GreatMagician (Kingdom-Release)
Scream 4 2011 TS H264 AAC-GreatMagician (Kingdom-Release)

Torrent's content info

Fast Five.mp4

Fast Five 2011 TS H264 AAC-GreatMagician (Kingdom-Release) screenshot
  • Screenshot 1
  • Screenshot 2
  • Screenshot 3
  • Screenshot 4
  • Screenshot 5
  • Screenshot 6
  • Screenshot 7
  • Screenshot 8
  • Screenshot 9

Duration: 01:56:44.48, start: 0.000000, bitrate: 1594 kb/s
Stream #0.0(und): Video: h264, yuv420p, 720x306, 23.98 tb(r)
Stream #0.1(eng): Audio: aac, 44100 Hz, stereo, s16

Check the movie's sound/language:

Text sample Text sample from Demonoid.com.txt

Torrent downloaded from http://www.Demonoid.com




Contents of download:

1345 megabyte in 16 files
Fast Five 2011 TS H264 AAC-GreatMagician (Kingdom-Release)
  • Fast Five 2011 TS H264 AAC-GreatMagician (Kingdom-Release)/Fast Five.mp4 (1332 MB)
  • Fast Five 2011 TS H264 AAC-GreatMagician (Kingdom-Release)/Sample/Fast Five - Sample.mp4 (10 MB)
  • Fast Five 2011 TS H264 AAC-GreatMagician (Kingdom-Release)/Cover/Poster.png (1 MB)
  • Fast Five 2011 TS H264 AAC-GreatMagician (Kingdom-Release)/Sample/shot0015.png (0.3 MB)
  • Fast Five 2011 TS H264 AAC-GreatMagician (Kingdom-Release)/Sample/shot0006.png (0.2 MB)
  • Fast Five 2011 TS H264 AAC-GreatMagician (Kingdom-Release)/Sample/shot0004.png (0.2 MB)
  • Fast Five 2011 TS H264 AAC-GreatMagician (Kingdom-Release)/Sample/shot0033.png (0.2 MB)
  • Fast Five 2011 TS H264 AAC-GreatMagician (Kingdom-Release)/Sample/shot0008.png (0.2 MB)
  • Fast Five 2011 TS H264 AAC-GreatMagician (Kingdom-Release)/Sample/shot0007.png (0.2 MB)
  • Fast Five 2011 TS H264 AAC-GreatMagician (Kingdom-Release)/Sample/shot0061.png (0.2 MB)
  • Fast Five 2011 TS H264 AAC-GreatMagician (Kingdom-Release)/Sample/shot0026.png (0.2 MB)
  • Fast Five 2011 TS H264 AAC-GreatMagician (Kingdom-Release)/Sample/shot0011.png (0.2 MB)
  • Fast Five 2011 TS H264 AAC-GreatMagician (Kingdom-Release)/Subtitles/Fast Five.Romanian.srt (63.7 KB)
  • Fast Five 2011 TS H264 AAC-GreatMagician (Kingdom-Release)/Subtitles/Fast Five.Polish.srt (63.7 KB)
  • Fast Five 2011 TS H264 AAC-GreatMagician (Kingdom-Release)/Kingdom RG.nfo (11.6 KB)
  • Fast Five 2011 TS H264 AAC-GreatMagician (Kingdom-Release)/Subtitles/Demonoid.com.txt (0 KB)

Comments:


Add report or comment (250 words maximum)

I'd like:  
Type text from captcha: