Our friends

Fast Five 2011 TS H264-Wrath torrent

Torrent info

Date 2011-05-02 10:46:55
Category Movies
Hash 71cd4b535de25c58c8f9729162198dd6d1e769d3
Seeds / Leechs 147 / 17 refresh
Full size 1354 MB
Tracker http://tracker.thepiratebay.org/announce
Tags fast five 2011 h264 wrath
Download – Fast Five 2011 TS H264-Wrath Download direct – no client needed

Related torrents

Fast Five (2011) 1080p Trailer
Fast Five 2011 Rio Heist TS XViD DTRG - SAFCuk009
Fast Five 2011 TS H264 AAC-GreatMagician (Kingdom-Release)
Fast Five 2011 TS H264-Wrath

Torrent's content info

Fast Five 2011 TS H264-Wrath.mp4

Fast Five 2011 TS H264-Wrath screenshot
  • Screenshot 1
  • Screenshot 2
  • Screenshot 3
  • Screenshot 4
  • Screenshot 5
  • Screenshot 6
  • Screenshot 7
  • Screenshot 8
  • Screenshot 9

Duration: 01:56:44.45, start: 0.000000, bitrate: 1621 kb/s
Stream #0.0(und): Video: h264, yuv420p, 720x304, 23.98 tb(r)
Stream #0.1(und): Audio: aac, 48000 Hz, stereo, s16

Check the movie's sound/language:

Contents of download:

1354 megabyte in 1 files
Fast Five 2011 TS H264-Wrath
  • Fast Five 2011 TS H264-Wrath/Fast Five 2011 TS H264-Wrath.mp4 (1354 MB)

Comments:


Add report or comment (250 words maximum)

I'd like:  
Type text from captcha: