Our friends

The Day After Tomorrow 2004 DVD Rip torrent

Torrent info

Date 2011-05-05 00:49:34
Category Movies
Hash a587f984d993c50eef1b9d52f8b899ef1482bca1
Seeds / Leechs -1 / -1 refresh
Full size 552 MB
Tracker http://www.majaa.asia:2710/322199c91167e741eade2cd8c099be91/scrape
Tags after tomorrow 2004
Download – The Day After Tomorrow 2004 DVD Rip Download direct – no client needed

Related torrents

The Day After Tomorrow(2004) - PSP movies - AVC.400kbps.480X208.
Послезавтра / The Day After Tomorrow (2004) BDRip {russian}
The Day After Tomorrow 2004 DVDR Divxnl-team dutch subs
The Day After Tomorrow 2004 720p BluRay DTS x264-ESiR

The Day After Tomorrow (2004) overview

Genre: adventure, sci-fi, action, thriller Director: Emmerich, Roland

Description

The earth is moving steadily toward a global environmental catastrophe: in one part of the world all living things die from a drought in the other - the raging water element of the city demolish. The proximity of the disaster forced climate scientists trying to find a way to stop global warming. To help him in his mission will his son in New York, which has entered a new ice age ... This film offers viewers their own, the next version of the end of the world, on which all life on earth systematically killed by completely different kinds of elements, all around is dying from the terrible tsunami disaster, while around the whole city demolished dozens of terrible vortex tornado. The focus of climate scientists, who desperately tried to prevent a catastrophe, but the authorities refused even to listen. Now he has to go in search of his son in New York, which "head" covered with snow.

Torrent's content info

Th e Day After Tommorow.mkv

The Day After Tomorrow 2004 DVD Rip screenshot
  • Screenshot 1
  • Screenshot 2
  • Screenshot 3
  • Screenshot 4
  • Screenshot 5
  • Screenshot 6
  • Screenshot 7
  • Screenshot 8
  • Screenshot 9

Duration: 02:03:40.50, start: 0.000000, bitrate: N/A
Stream #0.0: Video: h264, yuv420p, 1280x544, 23.98 tb(r)
Stream #0.1: Audio: aac, 24000 Hz, stereo, s16

Check the movie's sound/language:

Contents of download:

552 megabyte in 2 files
The Day After Tomorrow 2004 DVD Rip
  • The Day After Tommorow [2004]/Th e Day After Tommorow.mkv (552 MB)
  • The Day After Tommorow [2004]/The_Day_After_Tommorow_2004_roNy.srt (90.8 KB)

Comments:


Add report or comment (250 words maximum)

I'd like:  
Type text from captcha: