Our friends

Thor Soundtrack [2011] - Patrick Doyle [loco] torrent

Torrent info

Date 2011-05-07 05:46:14
Category Music
Hash 9833a0402ee3677239de8e90d7b1d443cbfa2ad0
Seeds / Leechs -1 / -1 refresh
Full size 167 MB
Tracker http://tracker.thepiratebay.org/announce
Tags thor soundtrack 2011 patrick doyle loco
Download – Thor Soundtrack [2011] - Patrick Doyle [loco] Download direct – no client needed

Related torrents

The Eagle Soundtrack [2011] - Atli Orvarsson [loco]
No Strings Attached Soundtrack [2011] - John Debney [loco]
The Adjustment Bureau Soundtrack [2011] - Thomas Newman [loco]
Ironclad Soundtrack (2011) - Lorne BalfeIron [loco]

Torrent's content info

20 seconds audio samples

18 the destroyer_sample.mp3
Audio file info Duration: 00:02:57.37, start: 0.000000, bitrate: 322 kb/s
Stream #0.0: Audio: mp3, 44100 Hz, 2 channels, s16, 320 kb/s
11 odin confesses_sample.mp3
Audio file info Duration: 00:02:43.42, start: 0.000000, bitrate: 323 kb/s
Stream #0.0: Audio: mp3, 44100 Hz, 2 channels, s16, 320 kb/s
07 laufey_sample.mp3
Audio file info Duration: 00:03:40.73, start: 0.000000, bitrate: 322 kb/s
Stream #0.0: Audio: mp3, 44100 Hz, 2 channels, s16, 320 kb/s
15 loki's lie_sample.mp3
Audio file info Duration: 00:01:54.28, start: 0.000000, bitrate: 324 kb/s
Stream #0.0: Audio: mp3, 44100 Hz, 2 channels, s16, 320 kb/s

Contents of download:

167 megabyte in 25 files
Thor Soundtrack [2011] - Patrick Doyle [loco]
  • Thor Soundtrack [2011] - Patrick Doyle [loco]/01 chasing the storm.mp3 (7.4 MB)
  • Thor Soundtrack [2011] - Patrick Doyle [loco]/02 prologue.mp3 (7.3 MB)
  • Thor Soundtrack [2011] - Patrick Doyle [loco]/03 sons of odin.mp3 (4.2 MB)
  • Thor Soundtrack [2011] - Patrick Doyle [loco]/04 a new king.mp3 (7 MB)
  • Thor Soundtrack [2011] - Patrick Doyle [loco]/05 ride to observatory.mp3 (5 MB)
  • Thor Soundtrack [2011] - Patrick Doyle [loco]/06 to jotunheim.mp3 (5.4 MB)
  • Thor Soundtrack [2011] - Patrick Doyle [loco]/07 laufey.mp3 (8.5 MB)
  • Thor Soundtrack [2011] - Patrick Doyle [loco]/08 frost giant battle.mp3 (10 MB)
  • Thor Soundtrack [2011] - Patrick Doyle [loco]/09 banishment.mp3 (4.4 MB)
  • Thor Soundtrack [2011] - Patrick Doyle [loco]/10 crisis in asgard.mp3 (5.4 MB)
  • Thor Soundtrack [2011] - Patrick Doyle [loco]/11 odin confesses.mp3 (6.3 MB)
  • Thor Soundtrack [2011] - Patrick Doyle [loco]/12 hammer found.mp3 (2.8 MB)
  • Thor Soundtrack [2011] - Patrick Doyle [loco]/13 urgent matter.mp3 (5.5 MB)
  • Thor Soundtrack [2011] - Patrick Doyle [loco]/14 the compound.mp3 (18 MB)
  • Thor Soundtrack [2011] - Patrick Doyle [loco]/15 loki's lie.mp3 (4.4 MB)
  • Thor Soundtrack [2011] - Patrick Doyle [loco]/16 my bastard son.mp3 (6.1 MB)
  • Thor Soundtrack [2011] - Patrick Doyle [loco]/17 science and magic.mp3 (6.7 MB)
  • Thor Soundtrack [2011] - Patrick Doyle [loco]/18 the destroyer.mp3 (6.8 MB)
  • Thor Soundtrack [2011] - Patrick Doyle [loco]/19 forgive me.mp3 (6.2 MB)
  • Thor Soundtrack [2011] - Patrick Doyle [loco]/20 thor kills the destroyer.mp3 (4.4 MB)
  • Thor Soundtrack [2011] - Patrick Doyle [loco]/21 brothers fight.mp3 (16 MB)
  • Thor Soundtrack [2011] - Patrick Doyle [loco]/22 letting go.mp3 (7.6 MB)
  • Thor Soundtrack [2011] - Patrick Doyle [loco]/23 can you see jane_.mp3 (5.5 MB)
  • Thor Soundtrack [2011] - Patrick Doyle [loco]/24 earth to asgard.mp3 (5.9 MB)
  • Thor Soundtrack [2011] - Patrick Doyle [loco]/thorsoundtrack.jpg (21.1 KB)

Comments:


Add report or comment (250 words maximum)

I'd like:  
Type text from captcha: