Our friends

In Dying Arms - Deprivation (2010) [JonnyBeans] torrent

Torrent info

Date 2011-05-10 12:51:12
Category Music
Hash 612a2ec7fdf20009b34e2b16e9ea649ba1a0ee97
Seeds / Leechs 16 / 2 refresh
Full size 75 MB
Tracker http://inferno.demonoid.com:3402/scrape
Tags dying arms deprivation 2010 jonnybeans

Related torrents

In Dying Arms - 2009 This Is Retaliation EP
Band Of Horses - Infinite Arms CDRip 2010 [Bubanee]
Oceano - Contagion (2010) [JonnyBeans]
In Dying Arms - Deprivation (2010) [JonnyBeans]

Torrent's content info

20 seconds audio samples

04 Blemish_sample.mp3
Audio file info Duration: 00:03:09.17, start: 0.000000, bitrate: 319 kb/s
Stream #0.0: Audio: mp3, 44100 Hz, 2 channels, s16, 320 kb/s
08 Obstacle of Captivation_sample.mp3
Audio file info Duration: 00:03:37.98, start: 0.000000, bitrate: 320 kb/s
Stream #0.0: Audio: mp3, 44100 Hz, 2 channels, s16, 320 kb/s
07 Flawless At Its Finest_sample.mp3
Audio file info Duration: 00:04:40.02, start: 0.000000, bitrate: 320 kb/s
Stream #0.0: Audio: mp3, 44100 Hz, 2 channels, s16, 320 kb/s
05 Deprived_sample.mp3
Audio file info Duration: 00:03:22.47, start: 0.000000, bitrate: 320 kb/s
Stream #0.0: Audio: mp3, 44100 Hz, 2 channels, s16, 320 kb/s

Text sample Text sample from Torrent downloaded from Demonoid.com.txt

Torrent downloaded from http://www.Demonoid.com




Contents of download:

75 megabyte in 11 files
In Dying Arms - Deprivation (2010) [JonnyBeans]
  • In Dying Arms - Deprivation (2010)/01 Introduction.mp3 (3.4 MB)
  • In Dying Arms - Deprivation (2010)/02 Obsolete.mp3 (6.6 MB)
  • In Dying Arms - Deprivation (2010)/03 Womb Of Vital Confinement.mp3 (8.1 MB)
  • In Dying Arms - Deprivation (2010)/04 Blemish.mp3 (7.2 MB)
  • In Dying Arms - Deprivation (2010)/05 Deprived.mp3 (7.7 MB)
  • In Dying Arms - Deprivation (2010)/06 What Should Have Been A Past.mp3 (7.1 MB)
  • In Dying Arms - Deprivation (2010)/07 Flawless At Its Finest.mp3 (11 MB)
  • In Dying Arms - Deprivation (2010)/08 Obstacle of Captivation.mp3 (8.3 MB)
  • In Dying Arms - Deprivation (2010)/09 Sloppy Seconds.mp3 (6.8 MB)
  • In Dying Arms - Deprivation (2010)/10 With The Reflection Of Self.mp3 (8.7 MB)
  • In Dying Arms - Deprivation (2010)/Torrent downloaded from Demonoid.com.txt (0 KB)

Comments:


Add report or comment (250 words maximum)

I'd like:  
Type text from captcha: