Our friends

Transporter.3(Hindi)DVDRip.aaaevilacharya torrent

Torrent info

Date 2011-05-11 00:59:05
Category Movies
Hash c66334da914f5e1078e4ca70daefaade8f85048d
Seeds / Leechs 4 / 6 refresh
Full size 758 MB
Tracker http://nemesis.1337x.org/scrape
Tags transporter hindi dvdrip aaaevilacharya
Download – Transporter.3(Hindi)DVDRip.aaaevilacharya Download direct – no client needed

Related torrents

The Italian Job Dual-Audio{English-Hindi}DVDRip aaaevilacharya
The Bourne Identity Dual Audio{Eng-Hindi}DVDRip aaaevilacharya
Decoys 2004 Dual Audio{English-Hindi}DVDRip aaaevilacharya
Transporter.3(Hindi)DVDRip.aaaevilacharya

Torrent's content info

Transporter.3.(Hindi.Dubbed)aaaevilacharya.avi

Transporter.3(Hindi)DVDRip.aaaevilacharya screenshot
  • Screenshot 1
  • Screenshot 2
  • Screenshot 3
  • Screenshot 4
  • Screenshot 5
  • Screenshot 6
  • Screenshot 7
  • Screenshot 8
  • Screenshot 9

Duration: 01:43:59.64, start: 0.000000, bitrate: 1019 kb/s
Stream #0.0: Video: mpeg4, yuv420p, 650x302 [PAR 1:1 DAR 325:151], 25 tbr, 25 tbn, 25 tbc
Stream #0.1: Audio: mp3, 44100 Hz, 2 channels, s16, 112 kb/s

Check the movie's sound/language:

Contents of download:

758 megabyte in 1 files
Transporter.3(Hindi)DVDRip.aaaevilacharya
  • Transporter.3.(Hindi.Dubbed)DVDRip.aaaevilacharya/Transporter.3.(Hindi.Dubbed)aaaevilacharya.avi (758 MB)

Comments:


Add report or comment (250 words maximum)

I'd like:  
Type text from captcha: