Our friends

Andar Bahar (1984) ~ Action Thriller ~ Hindi Movie torrent

Torrent info

Date 2011-05-11 00:59:39
Category Movies
Hash 3e557c5ad992c6a1d6d501fc7f7e3d416fcce347
Seeds / Leechs 0 / 0 refresh
Full size 700 MB
Tracker http://tracker.desibbrg.com:2710/000217c5f39f3960f0f64e2b17f3d565/scrape
Tags andar bahar 1984 action thriller hindi movie

Related torrents

Kala Aadmi (1978) ~ Action Thriller ~ Hindi Movie
Chhailla Babu (1977) ~ Rajesh Khanna Thriller ~ hindi movie
Mahaan (1983) ~ Action Thriller ~ Hindi
Kartavya (1979) ~ Action Classic ~ Hindi Movie

Torrent's content info

Andar Bahar (1984) ~ Action Thriller ~ [RRG]{Brego}dbbians,com.avi

Andar Bahar (1984) ~ Action Thriller ~ Hindi Movie screenshot
  • Screenshot 1
  • Screenshot 2
  • Screenshot 3
  • Screenshot 4
  • Screenshot 5
  • Screenshot 6
  • Screenshot 7
  • Screenshot 8
  • Screenshot 9

Duration: 02:18:11.01, start: 0.000000, bitrate: 707 kb/s
Stream #0.0: Video: mpeg4, yuv420p, 640x288 [PAR 1:1 DAR 20:9], 29.97 tbr, 29.97 tbn, 29.97 tbc
Stream #0.1: Audio: mp3, 48000 Hz, 2 channels, s16, 64 kb/s

Check the movie's sound/language:

Contents of download:

700 megabyte in 2 files
Andar Bahar (1984) ~ Action Thriller ~ Hindi Movie
  • Andar Bahar (1984) ~ Action Thriller ~ [RRG]{Brego}dbbians,com/Andar Bahar (1984) ~ Action Thriller ~ [RRG]{Brego}dbbians,com.avi (699 MB)
  • Andar Bahar (1984) ~ Action Thriller ~ [RRG]{Brego}dbbians,com/thumbs20100910214258.jpg (0.4 MB)

Comments:


Add report or comment (250 words maximum)

I'd like:  
Type text from captcha: