Our friends

Iron Man 2 (2010) Hindi 1CD DVD Rip Xvid Subs@Mastitorrents torrent

Torrent info

Date 2011-05-12 01:16:11
Category Movies
Hash 42738e704f3babc38e32f7011861fdf6386959b4
Seeds / Leechs 9 / 13 refresh
Full size 713 MB
Tracker http://www.mastitorrents.com:30303/000058c91ed3cf315b9fb0ccc8196c79/scrape
Tags iron 2010 hindi xvid subs mastitorrents

Related torrents

Tum.Mil.Sahi.2010.DVDRip.Hindi XviD.2CD@Mastitorrents
Iron Man 2 (2010) Hindi 1CD DVD Rip Xvid Subs@Mastitorrents
Gandhi To Hitler (Hindi 2011) HQ PDVDRip Xvid Subs@mastitorrents
Allah Ke Banday (Hindi 2010) DVDRip XviD ESubs@mastitorrents

Torrent's content info

Iron Man 2 (2010) Hindi 1CD DVD Rip Xvid Subs(www.mastitorrents.com).avi

Iron Man 2 (2010) Hindi 1CD DVD Rip Xvid Subs@Mastitorrents screenshot
  • Screenshot 1
  • Screenshot 2
  • Screenshot 3
  • Screenshot 4
  • Screenshot 5
  • Screenshot 6
  • Screenshot 7
  • Screenshot 8
  • Screenshot 9

Duration: 02:07:27.64, start: 0.000000, bitrate: 766 kb/s
Stream #0.0: Video: mpeg4, yuv420p, 608x256 [PAR 1:1 DAR 19:8], 23.98 tbr, 23.98 tbn, 23.98 tbc
Stream #0.1: Audio: mp3, 48000 Hz, 2 channels, s16, 128 kb/s

Check the movie's sound/language:

Text sample Text sample from Torrent Downloaded From www.mastitorrents.com.txt

Torrent Download From www.mastitorrents.com

For More Updates Keep Visiting

http://www.mastitorrents.com/forums/index.php

www.Mastitorrents.com

You can download when released out by group uploaders.

no Wait Time, no Virus, Very Fast Download Speed.

Join us now at

www.Mastitorrents.com




Contents of download:

713 megabyte in 6 files
Iron Man 2 (2010) Hindi 1CD DVD Rip Xvid Subs@Mastitorrents
  • Iron Man 2 (2010) Hindi 1CD DVD Rip Xvid Subs(www.mastitorrents.com)/English.srt (0.2 MB)
  • Iron Man 2 (2010) Hindi 1CD DVD Rip Xvid Subs(www.mastitorrents.com)/Hindi.idx (65.9 KB)
  • Iron Man 2 (2010) Hindi 1CD DVD Rip Xvid Subs(www.mastitorrents.com)/Hindi.sub (3.4 MB)
  • Iron Man 2 (2010) Hindi 1CD DVD Rip Xvid Subs(www.mastitorrents.com)/Iron Man 2 (2010) Hindi 1CD DVD Rip Xvid Subs(www.mastitorrents.com).avi (699 MB)
  • Iron Man 2 (2010) Hindi 1CD DVD Rip Xvid Subs(www.mastitorrents.com)/Sample - Iron Man 2 (2010) Hindi 1CD DVD Rip Xvid Subs(www.mastitorrents.com).avi (10 MB)
  • Iron Man 2 (2010) Hindi 1CD DVD Rip Xvid Subs(www.mastitorrents.com)/Torrent Downloaded From www.mastitorrents.com.txt (0.3 KB)

Comments:


Add report or comment (250 words maximum)

I'd like:  
Type text from captcha: