Our friends

World Trade Center-AC3-XviD-DVDRip[Eng]2006 2Lions-Team torrent

Torrent info

Date 2011-05-12 01:35:50
Category Movies
Hash d2463d95d158bfa023fdbd000c856d8d7bd8c532
Seeds / Leechs 8 / 3 refresh
Full size 1397 MB
Tracker http://exodus.1337x.org/scrape
Tags world trade center xvid dvdrip 2006 2lions team

Related torrents

World.Trade.Center[2006]DvDrip[Eng]-aXXo
World Trade Center 2006 [DVDRip][AC3.XviD - MAJKiEL][LEKTOR PL]
World Trade Center-AC3-XviD-DVDRip[Eng]2006 2Lions-Team
Letters From Iwo Jima-AC3-XviD-DVDRip[Jap]2006 2Lions-Team

Torrent's content info

World Trade Center-AC3-XviD-DVDRip[Eng]2006 2Lions-Team.avi

World Trade Center-AC3-XviD-DVDRip[Eng]2006 2Lions-Team screenshot
  • Screenshot 1
  • Screenshot 2
  • Screenshot 3
  • Screenshot 4
  • Screenshot 5
  • Screenshot 6
  • Screenshot 7
  • Screenshot 8
  • Screenshot 9

Duration: 02:03:51.12, start: 0.000000, bitrate: 1575 kb/s
Stream #0.0: Video: mpeg4, yuv420p, 720x400 [PAR 1:1 DAR 9:5], 25 tbr, 25 tbn, 25 tbc
Stream #0.1: Audio: ac3, 48000 Hz, 5.1, s16, 448 kb/s

Check the movie's sound/language:

Text sample Text sample from Torrent_aangeboden door 2lions.ons-forum.nl.txt


Brought to you by
2Lions Team

meer zien??

Kom dan eens kijken op ons NIEUWE forum

NEW NEW-------> http://2lions-site.nl/index.php <------- NEW NEW

2Lions-Team for all your Dutch MOVIES and more

*****************************************************

DON T HIT AND RUN Niet gelijk afhaken als de film binnen is blijf seeden.

Don`t quit after you finished the download, but keep seeding.

*****************************************************

There are fake torrents from uploaders who use our team name.
Those are not ours, or members from our team.
We 2Lions-Team are not responsible for the fake posts on our name

Wij 2Lions-Team zijn niet verantwoordelijk voor die zieke FAKE posten die op onze naam worden gedaan

Please check our site !!!

to the fakers , get a life !!!

*****************************************************




Text sample Text sample from Torrent downloaded from Demonoid.com.txt

Torrent downloaded from http://www.Demonoid.com




Text sample Text sample from World Trade Center-AC3-XviD-DVDRip[Eng]2006 2Lions-Team.txt

Read full text


Text sample Text sample from Torrent_downloaded_from_AhaShare.com.txt

Share the fun!!!
Torrent downloaded from AhaShare.com.txt

******************************************

Brought to you by
2Lions Team

meer zien??
Kom dan eens kijken op ons forum

http://www.2lions-site.nl

******************************************

wanna see more check our Forum

http://www.2lions-site.nl


veel van onze torrents kunt u vinden op

a lot of our torrents you can find on :


http://thepiratebay.org

http://www.h33t.com

http://extratorrent.com

http://www.demonoid.com

http://www.1337x.org

http://movie-torrentz.com


Enjoy
2Lions-Team




Text sample Text sample from tracked By movie-torrentz.txt

tracked By http://movie-torrentz.com




Contents of download:

1397 megabyte in 13 files
World Trade Center-AC3-XviD-DVDRip[Eng]2006 2Lions-Team
  • World Trade Center-AC3-XviD-DVDRip[Eng]2006 2Lions-Team/Covers/World Trade Center 2006-Cover Dutch.jpg (0.4 MB)
  • World Trade Center-AC3-XviD-DVDRip[Eng]2006 2Lions-Team/Covers/World Trade Center 2006-DVD.jpg (0.2 MB)
  • World Trade Center-AC3-XviD-DVDRip[Eng]2006 2Lions-Team/Covers/World Trade Center 2006-Cover English.jpg (0.2 MB)
  • World Trade Center-AC3-XviD-DVDRip[Eng]2006 2Lions-Team/INFO 2Lions-Team/2Lions-Flyer.jpg (0.1 MB)
  • World Trade Center-AC3-XviD-DVDRip[Eng]2006 2Lions-Team/INFO 2Lions-Team/Film-Terminal-Flyer.jpg (75.9 KB)
  • World Trade Center-AC3-XviD-DVDRip[Eng]2006 2Lions-Team/INFO 2Lions-Team/World Trade Center-AC3-XviD-DVDRip[Eng]2006 2Lions-Team.txt (3.7 KB)
  • World Trade Center-AC3-XviD-DVDRip[Eng]2006 2Lions-Team/INFO 2Lions-Team/Torrent_aangeboden door 2lions.ons-forum.nl.txt (0.9 KB)
  • World Trade Center-AC3-XviD-DVDRip[Eng]2006 2Lions-Team/INFO 2Lions-Team/Torrent_downloaded_from_AhaShare.com.txt (0.6 KB)
  • World Trade Center-AC3-XviD-DVDRip[Eng]2006 2Lions-Team/INFO 2Lions-Team/Torrent downloaded from Demonoid.com.txt (0 KB)
  • World Trade Center-AC3-XviD-DVDRip[Eng]2006 2Lions-Team/INFO 2Lions-Team/tracked By movie-torrentz.txt (0 KB)
  • World Trade Center-AC3-XviD-DVDRip[Eng]2006 2Lions-Team/Subtitles/World Trade Center-AC3-XviD-DVDRip[Eng]2006 2Lions-Team English.srt (0.1 MB)
  • World Trade Center-AC3-XviD-DVDRip[Eng]2006 2Lions-Team/Subtitles/World Trade Center-AC3-XviD-DVDRip[Eng]2006 2Lions-Team Dutch.srt (88.1 KB)
  • World Trade Center-AC3-XviD-DVDRip[Eng]2006 2Lions-Team/World Trade Center-AC3-XviD-DVDRip[Eng]2006 2Lions-Team.avi (1396 MB)

Comments:


Add report or comment (250 words maximum)

I'd like:  
Type text from captcha: