Our friends

Moby - Destroyed (2011) torrent

Torrent info

Date 2011-05-14 21:47:43
Category Music
Hash b3f2ae5a0e84d6b1465ac6d86cf456d85d9e2b84
Seeds / Leechs 1326 / 206 refresh
Full size 128 MB
Tracker http://tracker.thepiratebay.org/announce
Tags moby destroyed 2011
Download – Moby - Destroyed (2011) Download direct – no client needed

Related torrents

Moby - Destroyed [mp3-128-2011][trfkad]
Moby - Destroyed (2011)
Moby - Destroyed (2011), 320Kbit(mp3), DMT
Moby - Destroyed (2011) Techno DutchReleaseTeam

Torrent's content info

20 seconds audio samples

04 - Moby - The Low Hum_sample.mp3
Audio file info Duration: 00:04:13.12, start: 0.000000, bitrate: 252 kb/s
Stream #0.0: Audio: mp3, 44100 Hz, stereo, s16, 256 kb/s
12 - Moby - Stella Maris_sample.mp3
Audio file info Duration: 00:05:13.93, start: 0.000000, bitrate: 228 kb/s
Stream #0.0: Audio: mp3, 44100 Hz, stereo, s16, 224 kb/s
15 - Moby - When You Are Old_sample.mp3
Audio file info Duration: 00:02:18.91, start: 0.000000, bitrate: 228 kb/s
Stream #0.0: Audio: mp3, 44100 Hz, stereo, s16, 224 kb/s
01 - Moby - The Broken Places_sample.mp3
Audio file info Duration: 00:04:10.07, start: 0.000000, bitrate: 230 kb/s
Stream #0.0: Audio: mp3, 44100 Hz, stereo, s16, 224 kb/s

Text sample Text sample from Torrent downloaded from h33t.com.txt

Torrent downloaded from http://h33t.com/




Text sample Text sample from Torrent downloaded from Demonoid.me.txt

Torrent downloaded from http://www.Demonoid.me




Text sample Text sample from Torrent downloaded from Extratorrent.com.txt

Torrent downloaded from http://www.Extratorrent.com




Text sample Text sample from Torrent downloaded from 1337x.org.txt

Torrent downloaded from http://www.1337x.org




Text sample Text sample from Torrent downloaded from Thepiratebay.org.txt

Torrent downloaded from http://www.Thepiratebay.org




Contents of download:

128 megabyte in 21 files
Moby - Destroyed (2011)
  • Moby - Destroyed (2011)/Torrent NFO/Torrent downloaded from Extratorrent.com.txt (0 KB)
  • Moby - Destroyed (2011)/Torrent NFO/Torrent downloaded from Thepiratebay.org.txt (0 KB)
  • Moby - Destroyed (2011)/Torrent NFO/Torrent downloaded from Demonoid.me.txt (0 KB)
  • Moby - Destroyed (2011)/Torrent NFO/Torrent downloaded from 1337x.org.txt (0 KB)
  • Moby - Destroyed (2011)/Torrent NFO/Torrent downloaded from h33t.com.txt (0 KB)
  • Moby - Destroyed (2011)/14 - Moby - Lacrimae.mp3 (15 MB)
  • Moby - Destroyed (2011)/13 - Moby - The Violent Bear It Away.mp3 (12 MB)
  • Moby - Destroyed (2011)/09 - Moby - After.mp3 (11 MB)
  • Moby - Destroyed (2011)/08 - Moby - Victoria Lucas.mp3 (10 MB)
  • Moby - Destroyed (2011)/12 - Moby - Stella Maris.mp3 (8.6 MB)
  • Moby - Destroyed (2011)/05 - Moby - Rockets.mp3 (8.4 MB)
  • Moby - Destroyed (2011)/07 - Moby - The Right Thing.mp3 (8.2 MB)
  • Moby - Destroyed (2011)/06 - Moby - The Day.mp3 (8.2 MB)
  • Moby - Destroyed (2011)/03 - Moby - Sevastopol.mp3 (7.9 MB)
  • Moby - Destroyed (2011)/11 - Moby - Lie Down In Darkness.mp3 (7.7 MB)
  • Moby - Destroyed (2011)/04 - Moby - The Low Hum.mp3 (7.6 MB)
  • Moby - Destroyed (2011)/01 - Moby - The Broken Places.mp3 (6.9 MB)
  • Moby - Destroyed (2011)/10 - Moby - Blue Moon.mp3 (6.8 MB)
  • Moby - Destroyed (2011)/02 - Moby - Be The One.mp3 (6.1 MB)
  • Moby - Destroyed (2011)/15 - Moby - When You Are Old.mp3 (3.8 MB)
  • Moby - Destroyed (2011)/Moby - Destroyed (Cover).jpg (0.2 MB)

Comments:


Add report or comment (250 words maximum)

I'd like:  
Type text from captcha: