Our friends

VA-Summer Dancemix 19 (2011) (Bootrance) torrent

Torrent info

Date 2011-05-29 23:49:05
Category Music
Hash 77f66f4c526c1c41cbadc7070589d3914ebec67e
Seeds / Leechs -1 / -1 refresh
Full size 197 MB
Tracker http://tracker.thepiratebay.org/announce
Tags summer dancemix 2011 bootrance
Download – VA-Summer Dancemix 19 (2011) (Bootrance) Download direct – no client needed

Related torrents

VA-Electro House Session Vol 13 (2011) (Bootrance)
100 Mega Summer Hits (2011) 5CD 320KB TBS
VA-80s In The Mix (11) (2011)(Bootrance)
VA - 100 Mega Summer Hits 2011 (5CD), 320Kbit(mp3), DMT

Torrent's content info

20 seconds audio samples

19-Don't Wanna Go Home (Styles and complete Club Mix)_Jason Derulo_sample.mp3
Audio file info Duration: 00:03:58.31, start: 0.000000, bitrate: 320 kb/s
Stream #0.0: Audio: mp3, 44100 Hz, 2 channels, s16, 320 kb/s
17-Money Maker (Dj Krecer Bootleg Radio Mix 2011)_Dj Sava feat.Andreea D Yolo_sample.mp3
Audio file info Duration: 00:04:03.77, start: 0.000000, bitrate: 320 kb/s
Stream #0.0: Audio: mp3, 44100 Hz, 2 channels, s16, 320 kb/s
10-Gregory's Theme_Basto!_sample.mp3
Audio file info Duration: 00:02:42.03, start: 0.000000, bitrate: 319 kb/s
Stream #0.0: Audio: mp3, 44100 Hz, 2 channels, s16, 320 kb/s
03-Desert Rain_Edward Maya Feat. Vika Jigulina_sample.mp3
Audio file info Duration: 00:04:04.42, start: 0.000000, bitrate: 319 kb/s
Stream #0.0: Audio: mp3, 44100 Hz, 2 channels, s16, 320 kb/s

Contents of download:

197 megabyte in 21 files
VA-Summer Dancemix 19 (2011) (Bootrance)
  • Summer Dancemix 19/01-Lonely Heart_Radio Killer.mp3 (8 MB)
  • Summer Dancemix 19/02-Jazzy Girl_Da Fleiva & Bijue.mp3 (7.4 MB)
  • Summer Dancemix 19/03-Desert Rain_Edward Maya Feat. Vika Jigulina.mp3 (9.3 MB)
  • Summer Dancemix 19/04-Teach Me (Radio Edit)_Claudio Cristo Ft Tamy.mp3 (8.2 MB)
  • Summer Dancemix 19/05-Rising (Extended Mix)_Dirty Vision.mp3 (11 MB)
  • Summer Dancemix 19/06-Children _Calvin West.mp3 (7.9 MB)
  • Summer Dancemix 19/07-What Do You Want (Endroo Remix)_Ian & Tyana.mp3 (8.3 MB)
  • Summer Dancemix 19/08-Just Can't Get Enough (Dino Roc Remix)_Black Eyed Peas.mp3 (14 MB)
  • Summer Dancemix 19/09-Lovers Night (Radio Edit)_Jai Alexander & Sarah.mp3 (8.3 MB)
  • Summer Dancemix 19/10-Gregory's Theme_Basto!.mp3 (6.2 MB)
  • Summer Dancemix 19/11-Disco Dumb (Original Radio Edit)_Paul Daniel.mp3 (6.8 MB)
  • Summer Dancemix 19/12-You'Re Not Here (Original Mix)_Allan Natal Feat Leilah Moreno.mp3 (8.2 MB)
  • Summer Dancemix 19/13-Party With Me (Original Extended Mix)_Morris Corti & Eugenio LaMedica.mp3 (13 MB)
  • Summer Dancemix 19/14-Take Me Over (Ferry Corsten Fix)_Manufactured Superstars feat. Scarlett Quinn.mp3 (13 MB)
  • Summer Dancemix 19/15-It Takes A Fool To Remain Sane(Boys At Work Mix)_Alexandra Damiani feat.John Biancale.mp3 (13 MB)
  • Summer Dancemix 19/16 - Louder(7th Heaven Club Mix)_DJ Fresh feat. Sian Evans.mp3 (12 MB)
  • Summer Dancemix 19/17-Money Maker (Dj Krecer Bootleg Radio Mix 2011)_Dj Sava feat.Andreea D Yolo.mp3 (9.3 MB)
  • Summer Dancemix 19/18-Louder (Toy Armada Three Stars A Sun Remix)_Charice.mp3 (13 MB)
  • Summer Dancemix 19/19-Don't Wanna Go Home (Styles and complete Club Mix)_Jason Derulo.mp3 (9.1 MB)
  • Summer Dancemix 19/20-Temple Of Dreams 2011(Henry Blank Remix)_Future Breeze ft.Scoon Delore.mp3 (11 MB)
  • Summer Dancemix 19/Summer Dancemix 19 Compiled And Mixed By Boo.jpg (57.6 KB)

Comments:


Add report or comment (250 words maximum)

I'd like:  
Type text from captcha: