Our friends

Paul Simon - Graceland Remastered And Expanded Flac(hufc/IARG) torrent

Torrent info

Date 2011-06-04 12:52:46
Category Music
Hash 9a9339bee0359464c72c71582991b0e8908f514b
Seeds / Leechs 16 / 1 refresh
Full size 347 MB
Tracker http://genesis.1337x.org:1337/scrape
Tags paul simon graceland remastered expanded flac hufc iarg

Related torrents

Paul Simon- Graceland
Paul Simon - Graceland TQMP
Paul Simon - Graceland Remastered And Expanded Flac(hufc/IARG)
Classic Albums Paul Simon Graceland PDTV x264 AC3 MVGroup Forum

Torrent's content info

20 seconds audio samples

Track 11.flac_sample.mp3
Audio file info Duration: 00:03:19.15, bitrate: 975 kb/s
Stream #0.0: Audio: flac, 44100 Hz, 2 channels, s16
Track 14.flac_sample.mp3
Audio file info Duration: 00:03:17.06, bitrate: 975 kb/s
Stream #0.0: Audio: flac, 44100 Hz, 2 channels, s16
Track 12.flac_sample.mp3
Audio file info Duration: 00:02:28.68, bitrate: 781 kb/s
Stream #0.0: Audio: flac, 44100 Hz, 2 channels, s16
Track 13.flac_sample.mp3
Audio file info Duration: 00:04:42.95, bitrate: 739 kb/s
Stream #0.0: Audio: flac, 44100 Hz, 2 channels, s16

Text sample Text sample from Torrent downloaded from Demonoid.me.txt

Torrent downloaded from http://www.Demonoid.me

Uploaded by hartlepooluniedfc

Inspiration Aspired Release Group




Text sample Text sample from Torrent downloaded from Extratorrent.txt

Torrent downloaded from http://extratorrent.com/

Uploaded by hartlepooluniedfc

Inspiration Aspired Release Group




Text sample Text sample from Torrent downloaded from Ahashare.com.txt

Torrent downloaded from http://www.ahashare.com

Uploaded by hartlepooluniedfc

Inspiration Aspired Release Group




Text sample Text sample from Torrent downloaded from H33t.com.txt

Torrent downloaded from http://www.h33t.com/

Uploaded by hartlepooluniedfc

Inspiration Aspired Release Group




Text sample Text sample from IARG.nfo

IIIIIIIIII AAA RRRRRRRRRRRRRRRRR GGGGGGGGGGGGG
I::::::::I A:::A R::::::::::::::::R GGG::::::::::::G
I::::::::I A:::::A R::::::RRRRRR:::::R GG:::::::::::::::G
II::::::II A:::::::A RR:::::R R:::::R G:::::GGGGGGGG::::G
I::::I A:::::::::A R::::R R:::::R G:::::G GGGGGG
I::::I A:::::A:::::A R::::R R:::::RG:::::G
I::::I A:::::A A:::::A R::::RRRRRR:::::R G:::::G
I::::I A:::::A A:::::A R:::::::::::::RR G:::::G GGGGGGGGGG
I::::I A:::::A A:::::A R::::RRRRRR:::::R G:::::G G::::::::G
I::::I A:::::AAAAAAAAA:::::A R::::R R:::::RG:::::G GGGGG::::G
...

Read full text


Contents of download:

347 megabyte in 25 files
Paul Simon - Graceland Remastered And Expanded Flac(hufc/IARG)
  • Paul Simon - Graceland/covers/Sleeve_2.jpg (0.8 MB)
  • Paul Simon - Graceland/covers/Sleeve_1.jpg (0.8 MB)
  • Paul Simon - Graceland/covers/Disc.png (0.7 MB)
  • Paul Simon - Graceland/covers/Back.png (0.3 MB)
  • Paul Simon - Graceland/covers/Front.png (0.2 MB)
  • Paul Simon - Graceland/Track 5.flac (38 MB)
  • Paul Simon - Graceland/Track 2.flac (31 MB)
  • Paul Simon - Graceland/Track 6.flac (30 MB)
  • Paul Simon - Graceland/Track 9.flac (27 MB)
  • Paul Simon - Graceland/Track 1.flac (26 MB)
  • Paul Simon - Graceland/Track 13.flac (25 MB)
  • Paul Simon - Graceland/Track 7.flac (23 MB)
  • Paul Simon - Graceland/Track 11.flac (23 MB)
  • Paul Simon - Graceland/Track 14.flac (23 MB)
  • Paul Simon - Graceland/Track 8.flac (22 MB)
  • Paul Simon - Graceland/Track 10.flac (21 MB)
  • Paul Simon - Graceland/Track 3.flac (21 MB)
  • Paul Simon - Graceland/Track 4.flac (18 MB)
  • Paul Simon - Graceland/Track 12.flac (14 MB)
  • Paul Simon - Graceland/IARG.nfo (6 KB)
  • Paul Simon - Graceland/Paul Simon - Graceland.m3u (0.7 KB)
  • Paul Simon - Graceland/Torrent downloaded from Extratorrent.txt (0.1 KB)
  • Paul Simon - Graceland/Torrent downloaded from Ahashare.com.txt (0.1 KB)
  • Paul Simon - Graceland/Torrent downloaded from Demonoid.me.txt (0.1 KB)
  • Paul Simon - Graceland/Torrent downloaded from H33t.com.txt (0.1 KB)

Comments:


Add report or comment (250 words maximum)

I'd like:  
Type text from captcha: