Our friends

Blender-Välkommen in torrent

Torrent info

Date 2011-06-08 13:46:55
Category Music
Hash 48b2ffc2c11e1717edcf67760c4e78a57999d8d8
Seeds / Leechs -1 / -1 refresh
Full size 97 MB
Tracker http://tracker.thepiratebay.org/announce
Tags blender välkommen
Download – Blender-Välkommen in Download direct – no client needed

Related torrents

Blender-Empire magazine (#5)
19 LIL WAYNE & YOUNG MONEY CUT LIKE A BLENDER(FreeHotNewHipHop com) mp3
Cartoon Smart - Blender Basics 3
Cartoon Smart - Blender Materials And Textures

Torrent's content info

20 seconds audio samples

11-Blender - Ingen är Perfekt_sample.mp3
Audio file info Duration: 00:03:24.28, start: 0.000000, bitrate: 320 kb/s
Stream #0.0: Audio: mp3, 44100 Hz, 2 channels, s16, 320 kb/s
05-Blender - Är Det Mig Du Vill Ha_sample.mp3
Audio file info Duration: 00:02:57.03, start: 0.000000, bitrate: 320 kb/s
Stream #0.0: Audio: mp3, 44100 Hz, 2 channels, s16, 320 kb/s
07-Blender - Innan Det är Försent_sample.mp3
Audio file info Duration: 00:03:36.58, start: 0.000000, bitrate: 319 kb/s
Stream #0.0: Audio: mp3, 44100 Hz, 2 channels, s16, 320 kb/s
06-Blender - Ingen Annan än Du_sample.mp3
Audio file info Duration: 00:03:18.69, start: 0.000000, bitrate: 319 kb/s
Stream #0.0: Audio: mp3, 44100 Hz, 2 channels, s16, 320 kb/s

Text sample Text sample from 00.Blender-Välkommen in.nfo.nfo

Read full text


Contents of download:

97 megabyte in 26 files
Blender-Välkommen in
  • Blender-Välkommen in/Info/2jff01v.jpg (71 KB)
  • Blender-Välkommen in/Info/cat128x128.gif (52.6 KB)
  • Blender-Välkommen in/Info/Filmfix.se.png (3.9 KB)
  • Blender-Välkommen in/Info/fireheart128x128.gif (41.9 KB)
  • Blender-Välkommen in/Info/magicmushroom128x128.gif (7.1 KB)
  • Blender-Välkommen in/Info/Red ME.gif (0.1 MB)
  • Blender-Välkommen in/Info/Red ME.jpg.png (58.8 KB)
  • Blender-Välkommen in/Info/SEED.gif (0.3 MB)
  • Blender-Välkommen in/00-blender-valkommen_in-se-2009-back.jpg (72.6 KB)
  • Blender-Välkommen in/00-blender-valkommen_in-se-2009-cd.jpg (54.4 KB)
  • Blender-Välkommen in/00-blender-valkommen_in-se-2009-front.jpg (73.1 KB)
  • Blender-Välkommen in/00.Blender-Välkommen in.nfo.m3u (0.7 KB)
  • Blender-Välkommen in/00.Blender-Välkommen in.nfo.nfo (1.5 KB)
  • Blender-Välkommen in/00.Blender-Välkommen in.pls (0.9 KB)
  • Blender-Välkommen in/01-Blender - Ingenting Ingenting.mp3 (8.4 MB)
  • Blender-Välkommen in/02-Blender - Lysande Stjärna.mp3 (8.1 MB)
  • Blender-Välkommen in/03-Blender - Vad Du än Säger.mp3 (7.2 MB)
  • Blender-Välkommen in/04-Blender - I Mina Spår.mp3 (8.2 MB)
  • Blender-Välkommen in/05-Blender - Är Det Mig Du Vill Ha.mp3 (6.8 MB)
  • Blender-Välkommen in/06-Blender - Ingen Annan än Du.mp3 (7.6 MB)
  • Blender-Välkommen in/07-Blender - Innan Det är Försent.mp3 (8.3 MB)
  • Blender-Välkommen in/08-Blender - Välkommen in.mp3 (8.3 MB)
  • Blender-Välkommen in/09-Blender - Den Jag Vill Va´.mp3 (9.3 MB)
  • Blender-Välkommen in/10-Blender - Helt Oslagbar.mp3 (7.7 MB)
  • Blender-Välkommen in/11-Blender - Ingen är Perfekt.mp3 (7.8 MB)
  • Blender-Välkommen in/12-Blender - Bortom Räddning.mp3 (9 MB)

Comments:


Add report or comment (250 words maximum)

I'd like:  
Type text from captcha: