Our friends

DevilDriver - 2011 Beast - Heavy Metal 320 Kbps torrent

Torrent info

Date 2011-06-09 00:50:29
Category Music
Hash faf1402492333681738a78cbccc5afa34f81e177
Seeds / Leechs -1 / -1 refresh
Full size 126 MB
Tracker http://tracker.publicbt.com/scrape
Tags devildriver 2011 beast heavy metal kbps

Related torrents

(Italian Hip Hop)CorVeleno - Heavy Metal (MP3 128 Kbps) (tntvillage scambioetico org)
Manowar - Warriors Of The World (2002), [MP3 320 kbps] Heavy metal [Tntvillage.Scambioetico]
Manowar - Battle Hymns (1982), LOSSY MP3 320 kbps Heavy metal Scambioetico
Manowar - Into Glory Ride (1983), [MP3 320 kbps] Heavy metal [Tntvillage.Scambioetico]

Torrent's content info

20 seconds audio samples

08 Blur_sample.mp3
Audio file info Duration: 00:04:57.82, start: 0.000000, bitrate: 320 kb/s
Stream #0.0: Audio: mp3, 44100 Hz, 2 channels, s16, 320 kb/s
04 Shitlist_sample.mp3
Audio file info Duration: 00:04:03.77, start: 0.000000, bitrate: 319 kb/s
Stream #0.0: Audio: mp3, 44100 Hz, 2 channels, s16, 320 kb/s
12 Lend Myself To The Night_sample.mp3
Audio file info Duration: 00:04:01.24, start: 0.000000, bitrate: 320 kb/s
Stream #0.0: Audio: mp3, 44100 Hz, 2 channels, s16, 320 kb/s
10 Black Soul Choir_sample.mp3
Audio file info Duration: 00:05:06.83, start: 0.000000, bitrate: 319 kb/s
Stream #0.0: Audio: mp3, 44100 Hz, 2 channels, s16, 320 kb/s

Contents of download:

126 megabyte in 12 files
DevilDriver - 2011 Beast - Heavy Metal 320 Kbps
  • DevilDriver - 2011 Beast 320k/03 Hardened.mp3 (13 MB)
  • DevilDriver - 2011 Beast 320k/06 You Make Me Sick.mp3 (12 MB)
  • DevilDriver - 2011 Beast 320k/10 Black Soul Choir.mp3 (12 MB)
  • DevilDriver - 2011 Beast 320k/08 Blur.mp3 (11 MB)
  • DevilDriver - 2011 Beast 320k/11 Crowns Of Creation.mp3 (11 MB)
  • DevilDriver - 2011 Beast 320k/01 Dead To Rights.mp3 (11 MB)
  • DevilDriver - 2011 Beast 320k/05 Talons Out (Teeth Sharpened).mp3 (10 MB)
  • DevilDriver - 2011 Beast 320k/07 Coldblooded.mp3 (9.4 MB)
  • DevilDriver - 2011 Beast 320k/04 Shitlist.mp3 (9.3 MB)
  • DevilDriver - 2011 Beast 320k/12 Lend Myself To The Night.mp3 (9.2 MB)
  • DevilDriver - 2011 Beast 320k/09 The BLame Game.mp3 (9.2 MB)
  • DevilDriver - 2011 Beast 320k/02 Bring The Fight (To The Floor).mp3 (8.1 MB)

Comments:


Add report or comment (250 words maximum)

I'd like:  
Type text from captcha: