Our friends

Alicia Keys - Songs in A minor (10th Anniversary) (Deluxe Edition) - webrip torrent

Torrent info

Date 2011-07-04 01:01:22
Category Music
Hash eea133ef116c73093acec982cf5b281b83926cf2
Seeds / Leechs -1 / -1 refresh
Full size 78 MB
Tracker http://exodus.1337x.org/scrape
Tags alicia keys songs minor 10th anniversary deluxe edition webrip

Related torrents

Blondie-Parallel Lines-(30th Anniversary Deluxe Edition)-2008-XXL
Sublime 10th Anniversary Deluxe Edition (2006) mp3@320
Alicia Keys [Songs In A Minor] [MP3] [320Kbps] [Hannspree]
Celldweller-Celldweller__10th_Anniversary_Deluxe_Edition_-2CD-2013-MTD[rarbg]

Torrent's content info

20 seconds audio samples

07 A Woman's Worth www.newmusic2012.ucoz.com_sample.mp3
Audio file info Duration: 00:05:04.53, start: 0.000000, bitrate: 127 kb/s
Stream #0.0: Audio: mp3, 44100 Hz, 2 channels, s16, 128 kb/s
04 Fallin' www.newmusic2012.ucoz.com_sample.mp3
Audio file info Duration: 00:03:31.41, start: 0.000000, bitrate: 127 kb/s
Stream #0.0: Audio: mp3, 44100 Hz, 2 channels, s16, 128 kb/s
11 Mr. Man (duet with Jimmy Cozier) www.newmusic2012.ucoz.com_sample.mp3
Audio file info Duration: 00:04:10.95, start: 0.000000, bitrate: 128 kb/s
Stream #0.0: Audio: mp3, 44100 Hz, 2 channels, s16, 128 kb/s
20 Fallin' (The Ali Soundtrack Version)_sample.mp3
Audio file info Duration: 00:04:27.31, start: 0.000000, bitrate: 127 kb/s
Stream #0.0: Audio: mp3, 44100 Hz, 2 channels, s16, 128 kb/s

Contents of download:

78 megabyte in 22 files
Alicia Keys - Songs in A minor (10th Anniversary) (Deluxe Edition) - webrip
  • Alicia Keys - Songs in A minor (10th Anniversary) (Deluxe Edition) - webrip/06 Rock Wit U www.newmusic2012.ucoz.com.mp3 (5.2 MB)
  • Alicia Keys - Songs in A minor (10th Anniversary) (Deluxe Edition) - webrip/10 The Life www.newmusic2012.ucoz.com.mp3 (5 MB)
  • Alicia Keys - Songs in A minor (10th Anniversary) (Deluxe Edition) - webrip/07 A Woman's Worth www.newmusic2012.ucoz.com.mp3 (4.6 MB)
  • Alicia Keys - Songs in A minor (10th Anniversary) (Deluxe Edition) - webrip/05 Troubles www.newmusic2012.ucoz.com.mp3 (4.1 MB)
  • Alicia Keys - Songs in A minor (10th Anniversary) (Deluxe Edition) - webrip/17 A Woman's Worth (featuring NAS) (Remix).mp3 (4.1 MB)
  • Alicia Keys - Songs in A minor (10th Anniversary) (Deluxe Edition) - webrip/20 Fallin' (The Ali Soundtrack Version).mp3 (4.1 MB)
  • Alicia Keys - Songs in A minor (10th Anniversary) (Deluxe Edition) - webrip/14 Why Do I Feel So Sad www.newmusic2012.ucoz.com.mp3 (4.1 MB)
  • Alicia Keys - Songs in A minor (10th Anniversary) (Deluxe Edition) - webrip/09 Goodbye www.newmusic2012.ucoz.com.mp3 (4 MB)
  • Alicia Keys - Songs in A minor (10th Anniversary) (Deluxe Edition) - webrip/11 Mr. Man (duet with Jimmy Cozier) www.newmusic2012.ucoz.com.mp3 (3.8 MB)
  • Alicia Keys - Songs in A minor (10th Anniversary) (Deluxe Edition) - webrip/13 Butterflyz www.newmusic2012.ucoz.com.mp3 (3.8 MB)
  • Alicia Keys - Songs in A minor (10th Anniversary) (Deluxe Edition) - webrip/03 How Come You Don't Call Me www.newmusic2012.ucoz.com.mp3 (3.6 MB)
  • Alicia Keys - Songs in A minor (10th Anniversary) (Deluxe Edition) - webrip/22 Butterflyz (The Drumline Mix) www.newmusic2012.ucoz.com.mp3 (3.5 MB)
  • Alicia Keys - Songs in A minor (10th Anniversary) (Deluxe Edition) - webrip/16 Lovin U.mp3 (3.5 MB)
  • Alicia Keys - Songs in A minor (10th Anniversary) (Deluxe Edition) - webrip/08 Jane Doe www.newmusic2012.ucoz.com.mp3 (3.5 MB)
  • Alicia Keys - Songs in A minor (10th Anniversary) (Deluxe Edition) - webrip/02 Girlfriend www.newmusic2012.ucoz.com.mp3 (3.3 MB)
  • Alicia Keys - Songs in A minor (10th Anniversary) (Deluxe Edition) - webrip/04 Fallin' www.newmusic2012.ucoz.com.mp3 (3.2 MB)
  • Alicia Keys - Songs in A minor (10th Anniversary) (Deluxe Edition) - webrip/21 Typewriter www.newmusic2012.ucoz.com.mp3 (2.9 MB)
  • Alicia Keys - Songs in A minor (10th Anniversary) (Deluxe Edition) - webrip/18 Juiciest (Mixtape Version).mp3 (2.8 MB)
  • Alicia Keys - Songs in A minor (10th Anniversary) (Deluxe Edition) - webrip/15 Caged Bird.mp3 (2.8 MB)
  • Alicia Keys - Songs in A minor (10th Anniversary) (Deluxe Edition) - webrip/19 If I Were Your Woman (Funky Blues Demo)www.newmusic2012.ucoz.com.mp3 (2.8 MB)
  • Alicia Keys - Songs in A minor (10th Anniversary) (Deluxe Edition) - webrip/12 Never Felt This Way (Interlude) www.newmusic2012.ucoz.com.mp3 (1.9 MB)
  • Alicia Keys - Songs in A minor (10th Anniversary) (Deluxe Edition) - webrip/01 Piano & I www.newmusic2012.ucoz.com.mp3 (1.7 MB)

Comments:


Add report or comment (250 words maximum)

I'd like:  
Type text from captcha: