Our friends

Roni Size & Reprazent - New Forms (1997) 320Kbps MP3 torrent

Torrent info

Date 2011-07-04 01:05:48
Category Music
Hash 16c022b520414501cbdc74ed20306c5bdbe8761d
Seeds / Leechs -1 / -1 refresh
Full size 180 MB
Tracker http://nemesis.1337x.org/scrape
Tags roni size reprazent forms 1997 320kbps

Related torrents

Roni_Size_Reprazent-New_Forms_2-2008-ESC
DJ Krush - Milight (1997) 320kbps
Roni Size Live Space Ibiza 2008 09 02
Tromesa - Pasma Czasu (1997) 320Kbps [Psychedelic Trance] TRR

Torrent's content info

20 seconds audio samples

01 Railing_sample.mp3
Audio file info Duration: 00:02:05.02, start: 0.000000, bitrate: 320 kb/s
Stream #0.0: Audio: mp3, 44100 Hz, 2 channels, s16, 320 kb/s
10 Watching Windows_sample.mp3
Audio file info Duration: 00:05:32.78, start: 0.000000, bitrate: 320 kb/s
Stream #0.0: Audio: mp3, 44100 Hz, 2 channels, s16, 320 kb/s
05 Digital_sample.mp3
Audio file info Duration: 00:09:04.19, start: 0.000000, bitrate: 320 kb/s
Stream #0.0: Audio: mp3, 44100 Hz, 2 channels, s16, 320 kb/s
11 Beatbox_sample.mp3
Audio file info Duration: 00:01:09.38, start: 0.000000, bitrate: 320 kb/s
Stream #0.0: Audio: mp3, 44100 Hz, 2 channels, s16, 320 kb/s

Text sample Text sample from Torrent downloaded from Demonoid.me.txt

Torrent downloaded from http://www.Demonoid.me




Text sample Text sample from Roni Size & Reprazent - New Forms (1997) 320Kbps MP3.txt

Roni Size & Reprazent - New Forms (1997) 320Kbps MP3

01. Railing 2:05
02. Brown Paper Bag 9:04
03. New Forms 7:44
04. Let's Get It On 6:57
05. Digital 9:05
06. Matter Of Fact 4:05
07. Mad Cat 4:56
08. Heroes 6:35
09. Share The Fall (Full Vocal Mix) 6:13
10. Watching Windows 5:33
11. Beatbox 1:09
12. Morse Code 6:40
13. Destination 8:31

Uploaded by Boobsman




Contents of download:

180 megabyte in 16 files
Roni Size & Reprazent - New Forms (1997) 320Kbps MP3
  • Roni Size & Reprazent - New Forms (1997) 320Kbps MP3/05 Digital.mp3 (21 MB)
  • Roni Size & Reprazent - New Forms (1997) 320Kbps MP3/02 Brown Paper Bag.mp3 (21 MB)
  • Roni Size & Reprazent - New Forms (1997) 320Kbps MP3/13 Destination.mp3 (19 MB)
  • Roni Size & Reprazent - New Forms (1997) 320Kbps MP3/03 New Forms.mp3 (18 MB)
  • Roni Size & Reprazent - New Forms (1997) 320Kbps MP3/04 Let's Get It On.mp3 (16 MB)
  • Roni Size & Reprazent - New Forms (1997) 320Kbps MP3/12 Morse Code.mp3 (15 MB)
  • Roni Size & Reprazent - New Forms (1997) 320Kbps MP3/08 Heroes.mp3 (15 MB)
  • Roni Size & Reprazent - New Forms (1997) 320Kbps MP3/09 Share the Fall [Full Vocal Mix].mp3 (14 MB)
  • Roni Size & Reprazent - New Forms (1997) 320Kbps MP3/10 Watching Windows.mp3 (13 MB)
  • Roni Size & Reprazent - New Forms (1997) 320Kbps MP3/07 Mad Cat.mp3 (11 MB)
  • Roni Size & Reprazent - New Forms (1997) 320Kbps MP3/06 Matter of Fact.mp3 (9.3 MB)
  • Roni Size & Reprazent - New Forms (1997) 320Kbps MP3/01 Railing.mp3 (4.8 MB)
  • Roni Size & Reprazent - New Forms (1997) 320Kbps MP3/11 Beatbox.mp3 (2.6 MB)
  • Roni Size & Reprazent - New Forms (1997) 320Kbps MP3/Cover.jpg (22.7 KB)
  • Roni Size & Reprazent - New Forms (1997) 320Kbps MP3/Roni Size & Reprazent - New Forms (1997) 320Kbps MP3.txt (0.4 KB)
  • Roni Size & Reprazent - New Forms (1997) 320Kbps MP3/Torrent downloaded from Demonoid.me.txt (0 KB)

Comments:


Add report or comment (250 words maximum)

I'd like:  
Type text from captcha: