Our friends

Story Of The Blues From Blind Lemon Jefferson To B B King (mp4 torrent

Torrent info

Date 2011-07-04 23:47:13
Category Movies
Hash 923203156b8a6bfc8ee8c94245f78bbec07c9841
Seeds / Leechs -1 / -1 refresh
Full size 658 MB
Tracker http://tracker.thepiratebay.org/announce
Tags story blues from blind lemon jefferson king

Related torrents

Blind Lemon Jefferson
(Blues) Blind Lemon Jefferson - King Of The Country Blues
Earl King - The Sonet Blues Story (blues)(mp3@320)rogercc
Blind Lemon Jefferson Complete Recordings Vol 1-4(blues)(flac)[r

Torrent's content info

Story of the Blues(music doc)(mp4)[rogercc][h33t].m4v

Story Of The Blues  From Blind Lemon Jefferson To B B  King (mp4 screenshot
  • Screenshot 1
  • Screenshot 2
  • Screenshot 3
  • Screenshot 4
  • Screenshot 5
  • Screenshot 6
  • Screenshot 7
  • Screenshot 8
  • Screenshot 9

Duration: 01:41:56.62, start: 0.000000, bitrate: 902 kb/s
Stream #0.0(und): Video: mpeg4, yuv420p, 720x480 [PAR 8:9 DAR 4:3], 771 kb/s, 29.97 tbr, 2997 tbn, 2997 tbc
Stream #0.1(und): Audio: aac, 48000 Hz, 2 channels, s16, 127 kb/s

Check the movie's sound/language:

Contents of download:

658 megabyte in 1 files
Story Of The Blues From Blind Lemon Jefferson To B B King (mp4
  • Story of the Blues(music doc)(mp4)[rogercc][h33t].m4v (658 MB)

Comments:


Add report or comment (250 words maximum)

I'd like:  
Type text from captcha: